В.Г. Сурдин. Лекция "Состав и эволюция Вселенной" (2013) WEBRip [MP4|480x360]

 
 Статистика раздачи 
Размер: 247.51 МБ   |  Зарегистрирован: 08 окт 2016, 23:28   |   .torrent скачан: 0 раз
Сидеров: 1  [ 0 байт/сек ]     Личеров: 0  [ 0 байт/сек ]  
  

В.Г. Сурдин. Лекция "Состав и эволюция Вселенной" (2013) WEBRip [MP4|480x360]

Сообщение explosiveone » 08 окт 2016, 23:28

В.Г. Сурдин. Лекция "Состав и эволюция Вселенной" (2013) WEBRip

Жанр: Лекция, Документальный

Ведущий: В.Г. Сурдин

Описание:
Лекция "Состав и эволюция Вселенной" в рамках межфакультетского учебного курса "Общая астрономия". Курс рассчитан на широкую аудиторию неспециалистов и требует знания основ физики и математики в объеме школьной программы.
Лектор провёл В.Г. Сурдин кандидат физико-математических наук, доцент физического факультета МГУ, старший научный сотрудник Государственного астрономического института им. П. К. Штернберга (ГАИШ МГУ). Лауреат премии "Просветитель" 2012 года.

Продолжительность: 01:35:30
Качество видео: WEBRip

Видео: AVC/H.264, 480x360, ~264 Кбит/сек
Аудио: AAC, 2 ch, 96,0 Кбит/сек, VBR
Код:
Код: Выделить всё
Формат                                   : MPEG-4
Профиль формата                          : Base Media / Version 2
Идентификатор кодека                     : mp42 (isom/mp42)
Размер файла                             : 248 Мбайт
Продолжительность                        : 1 ч. 35 м.
Режим общего битрейта                    : Переменный
Общий поток                              : 362 Кбит/сек
Дата кодирования                         : UTC 2014-07-27 12:12:12
Дата пометки                             : UTC 2014-07-27 12:12:12
gsst                                     : 0
gstd                                     : 5730730

Видео
Идентификатор                            : 1
Формат                                   : AVC
Формат/Информация                        : Advanced Video Codec
Профиль формата                          :
Параметр CABAC формата                   : Нет
Параметр ReFrames формата                : 1 кадр
Идентификатор кодека                     : avc1
Идентификатор кодека/Информация          : Advanced Video Coding
Продолжительность                        : 1 ч. 35 м.
Битрейт                                  : 264 Кбит/сек
Максимальный битрейт                     : 993 Кбит/сек
Ширина                                   : 480 пикселей
Высота                                   : 360 пикселей
Соотношение сторон                       : 4:3
Режим частоты кадров                     : Постоянный
Частота кадров                           : 25,000 кадров/сек
Цветовое пространство                    : YUV
Субдискретизация насыщенности            : 4:2:0
Битовая глубина                          : 8 бит
Тип развёртки                            : Прогрессивная
Бит/(Пиксели*Кадры)                      : 0.061
Размер потока                            : 180 Мбайт (73%)
Дата пометки                             : UTC 2014-07-27 12:16:31

Аудио
Идентификатор                            : 2
Формат                                   : AAC
Формат/Информация                        : Advanced Audio Codec
Профиль формата                          : LC
Идентификатор кодека                     : 40
Продолжительность                        : 1 ч. 35 м.
Вид битрейта                             : Переменный
Битрейт                                  : 96,0 Кбит/сек
Максимальный битрейт                     : 104 Кбит/сек
Каналы                                   : 2 канала
Расположение каналов                     : Front: L R
Частота                                  : 44,1 КГц
Частота кадров                           : 43,066 кадра/сек (1024 spf)
Метод сжатия                             : С потерями
Размер потока                            : 65,6 Мбайт (26%)

Скриншоты:




Время раздачи:
по возможности (до появления первых 3-5 скачавших)
 
Не забывайте говорить Спасибо. Не уходите с раздачи!   
Торрент: Зарегистрирован [08 окт 2016, 23:28] Для скачивания .torrent
необходима регистрация
Или скачать с помощью
MediaGet
Статус:
Проверен
 
.torrent скачан: 0 раз
Хэш: d7a6d46aa4ca6d3c51f094ed10aeab273ac5d685
Размер: 247.51 МБ (259 533 373 байт)
Стать Автором раздачи
 
 
Раздал: 100 ГБ
Скачал: 0 байт
Ратио: Seed.
Сообщения: 94012
Зарегистрирован: 09 апр 2015, 22:31


  • Похожие торренты
    Ответы
    Просмотры
    Последнее сообщение

Вернуться в Видео для мобильных устройств

Ресурс не предоставляет электронные версии произведений, а занимается лишь коллекционированием и каталогизацией ссылок, присылаемых и публикуемых на форуме нашими читателями. Если вы являетесь правообладателем какого-либо представленного материала и не желаете чтобы ссылка на него находилась в нашем каталоге, свяжитесь с нами и мы незамедлительно удалим её. Файлы для обмена на трекере предоставлены пользователями сайта, и администрация не несёт ответственности за их содержание. Просьба не заливать файлы, защищенные авторскими правами, а также файлы нелегального содержания!
cron