У нас во дворе (1977) TVRip

 
 Статистика раздачи 
Размер: 600.58 МБ   |  Зарегистрирован: 08 окт 2016, 23:22   |   .torrent скачан: 1 раз
Сидеров: 1  [ 0 байт/сек ]     Личеров: 0  [ 0 байт/сек ]  
  

У нас во дворе (1977) TVRip

Сообщение explosiveone » 08 окт 2016, 23:22

У нас во дворе (1977) TVRip

Телекомпания: СССР, ТО Экран
Жанр: Документальный

Описание:
Этот фильм серии "Ребячьи комиссары" - об энтузиасте так называемой дворовой педагогики Ричарде Соколове. Он, вместе со своей женой, занимался организацией дворовых клубов "Орион", "Форпост 1", "Форпост 2" в которых ребята познавали дружбу, взаимовыручку, учились жить в обществе, быть полезным ему и своей стране. О том как клубы начинали свою работу, о трудностях и первых удачах на пути организаторов.

Продолжительность: 00:50:56
Качество видео: TVRip

Видео: Xvid, 704x528, ~1510 kbps
Аудио: MP3, 2 ch, 128 kbps
Код:
Код: Выделить всё
Общее
Полное имя                               : F:\У нас во дворе.avi
Формат                                   : AVI
Формат/Информация                        : Audio Video Interleave
Размер файла                             : 601 Мбайт
Продолжительность                        : 50 м. 56 с.
Общий поток                              : 1648 Кбит/сек
Программа кодирования                    : Lavf53.4.0
Библиотека кодирования                   : VirtualDub-MPEG2 build 24586/release

Видео
Идентификатор                            : 0
Формат                                   : MPEG-4 Visual
Профиль формата                          : Advanced [email protected]
Параметр BVOP формата                    : 1
Параметр QPel формата                    : Нет
Параметр GMC формата                     : Без точки перехода
Параметр матрицы формата                 : Default (H.263)
Режим смешивания                         : Сжатый битовый поток
Идентификатор кодека                     : DX50
Идентификатор кодека/Подсказка           : DivX 5
Продолжительность                        : 50 м. 56 с.
Битрейт                                  : 1510 Кбит/сек
Ширина                                   : 704 пикселя
Высота                                   : 528 пикселей
Соотношение сторон                       : 4:3
Частота кадров                           : 25,000 кадров/сек
Цветовое пространство                    : YUV
Субдискретизация насыщенности            : 4:2:0
Битовая глубина                          : 8 бит
Тип развёртки                            : Прогрессивная
Метод сжатия                             : С потерями
Бит/(Пиксели*Кадры)                      : 0.163
Размер потока                            : 550 Мбайт (92%)
Библиотека кодирования                   : XviD 64

Аудио
Идентификатор                            : 1
Формат                                   : MPEG Audio
Версия формата                           : Version 1
Профиль формата                          : Layer 3
Режим                                    : Joint stereo
Расширение режима                        : MS Stereo
Идентификатор кодека                     : 55
Идентификатор кодека/Подсказка           : MP3
Продолжительность                        : 50 м. 56 с.
Вид битрейта                             : Постоянный
Битрейт                                  : 128 Кбит/сек
Каналы                                   : 2 канала
Частота                                  : 44,1 КГц
Метод сжатия                             : С потерями
Размер потока                            : 46,6 Мбайт (8%)
Выравнивание                             : Разделение по промежуткам
Продолжительность промежутка             : 40  мс. (1,00 видеокадр)
Время предзагрузки промежутка            : 500  мс.
Библиотека кодирования                   : LAME3.98.2

Скриншоты:




Время раздачи: Пн-Чт с 16:00 до 20:00, Пт-Вс с 09:00 до 20:30 (до появления первых 3-5 скачавших)
 
Не забывайте говорить Спасибо. Не уходите с раздачи!   
Торрент: Зарегистрирован [08 окт 2016, 23:22] Для скачивания .torrent
необходима регистрация
Или скачать с помощью
MediaGet
Статус:
Проверен
 
.torrent скачан: 1 раз
Хэш: 26965d739d6f6454bb727100aa2c49ef351892c1
Размер: 600.58 МБ (629 750 026 байт)
Стать Автором раздачи
 
 
Раздал: 100 ГБ
Скачал: 0 байт
Ратио: Seed.
Сообщения: 82289
Зарегистрирован: 09 апр 2015, 22:31


  • Похожие торренты
    Ответы
    Просмотры
    Последнее сообщение

Вернуться в Эпоха СССР (видео)

Кто сейчас на конференции

Сейчас эту тему просматривают: нет зарегистрированных пользователей и гости: 1

Ресурс не предоставляет электронные версии произведений, а занимается лишь коллекционированием и каталогизацией ссылок, присылаемых и публикуемых на форуме нашими читателями. Если вы являетесь правообладателем какого-либо представленного материала и не желаете чтобы ссылка на него находилась в нашем каталоге, свяжитесь с нами и мы незамедлительно удалим её. Файлы для обмена на трекере предоставлены пользователями сайта, и администрация не несёт ответственности за их содержание. Просьба не заливать файлы, защищенные авторскими правами, а также файлы нелегального содержания!