Следствие вели... с Леонидом Каневским (19 выпускoв) (2006-2012) (Александр Ярославцев) [2006-2012, Документальный цикл, криминал, HDTV 1080i]

 
 Статистика раздачи 
Размер: 58.47 ГБ   |  Зарегистрирован: 08 окт 2016, 22:53   |   .torrent скачан: 0 раз
Сидеров: 2  [ 0 байт/сек ]     Личеров: 1  [ 0 байт/сек ]  
  

Следствие вели... с Леонидом Каневским (19 выпускoв) (2006-2012) (Александр Ярославцев) [2006-2012, Документальный цикл, криминал, HDTV 1080i]

Сообщение aLaVodka » 08 окт 2016, 22:53

Следствие вели... с Леонидом Каневским (2006-2012)

Год выпуска: 2006-2012
Страна: Россия
Студия: Версия
Жанр: Документальный цикл, криминал
Продолжительность: 00:39:33
Перевод: Не требуется
Русские субтитры: нет

Режиссер: Александр Ярославцев

Описание:
Эти уголовные дела гремели на весь Советский Союз. По ним были написаны романы и сняты художественные фильмы. Их фигуранты — миллионеры эпохи социализма, хитроумные воры, профессиональные грабители и валютчики. Они бросили вызов советскому обществу. Вызов приняли лучшие сыщики страны. В их распоряжении не было компьютеров, сотовой связи и бойцов ОМОНа. Но это не мешало вершиться правосудию. Банда «Черная кошка», дело банды советских гангстеров конца 60-х годов, прозванных «Фантомасами», увлекательная история налетчика Леонида Пантелеева, «свободного художника-грабителя» — эти случаи вошли в историю отечественной криминалистики.

08.10.2016 _ добавил: Выпуск 208 Москва слезам не верит (01.09.2012),
перезаливаем
Выпуск 223 Семейный палач (22.12.2012)
Выпуск 222 Вернуться, чтобы отомстить! (15.12.2012)
Выпуск 220 Взрыв в институте (01.12.2012)
Выпуск 219 Сердце матери (24.11.2012)
Выпуск 213 Скелет в подвале (06.10.2012)
Выпуск 208 Москва слезам не верит (01.09.2012)
Выпуск 192 Паук (18.02.2012)
Выпуск 191 Спасибо тебе, мама! (11.02.2012)
Выпуск 190 Сверхчеловеки (05.02.2012)
Выпуск 186 Дело особой важности (11.12.2011)
Выпуск 183 Украденная дочь (13.11.2011)
Выпуск 182 Сашка-Одесса (23.10.2011)
Выпуск 179 Чёрный сентябрь (01.10.2011)
Выпуск 176 Кукла для маньяка (11.09.2011)
Выпуск 175 Ведьма (04.09.2011)
Выпуск 158 Джентльмены неудачи (24.12.2010)
Выпуск 91 По прозвищу Лютый (14.10.2008)
Выпуск 13-14 Охотники за бриллиантами (26.05.2006)
Выпуск 3-4 Угрозыск против Фантомасов (03.02.2006)
Сэмпл: http://multi-up.com/1099073

Тип релиза: HDTV 1080i
Контейнер: TS

Видео: AVC, 1920x1080, (16:9), 25 fps, 7 495 Kbps
Аудио: MP2, 48 kHz; 2 ch; 192 kbps
Код: Выделить всё
General
ID                                       : 1 (0x1)
Complete name                            : X:\Следствие вели...с Леонидом Каневским (2006-2012)\Выпуск 223 Семейный палач (22.12.2012).ts
Format                                   : MPEG-TS
File size                                : 2.23 GiB
Duration                                 : 39mn 32s
Overall bit rate mode                    : Variable
Overall bit rate                         : 8 088 Kbps

Video
ID                                       : 201 (0xC9)
Menu ID                                  : 2201 (0x899)
Format                                   : AVC
Format/Info                              : Advanced Video Codec
Format profile                           : Main@L4
Format settings, CABAC                   : Yes
Format settings, ReFrames                : 4 frames
Codec ID                                 : 27
Duration                                 : 39mn 33s
Bit rate                                 : 7 495 Kbps
Width                                    : 1 920 pixels
Height                                   : 1 080 pixels
Display aspect ratio                     : 16:9
Frame rate                               : 25.000 fps
Standard                                 : Component
Color space                              : YUV
Chroma subsampling                       : 4:2:0
Bit depth                                : 8 bits
Scan type                                : Interlaced
Scan type, store method                  : Separated fields
Scan order                               : Top Field First
Bits/(Pixel*Frame)                       : 0.145
Stream size                              : 2.07 GiB (93%)
Color range                              : Limited
Color primaries                          : BT.709
Transfer characteristics                 : BT.709
Matrix coefficients                      : BT.709

Audio
ID                                       : 301 (0x12D)
Menu ID                                  : 2201 (0x899)
Format                                   : MPEG Audio
Format version                           : Version 1
Format profile                           : Layer 2
Codec ID                                 : 3
Duration                                 : 39mn 33s
Bit rate mode                            : Constant
Bit rate                                 : 192 Kbps
Channel(s)                               : 2 channels
Sampling rate                            : 48.0 KHz
Compression mode                         : Lossy
Delay relative to video                  : -80ms
Stream size                              : 54.3 MiB (2%)
Language                                 : English
 
Не забывайте говорить Спасибо. Не уходите с раздачи!   
Торрент: Зарегистрирован [08 окт 2016, 22:53] Для скачивания .torrent
необходима регистрация
Или скачать с помощью
MediaGet
Статус:
Проверен
 
.torrent скачан: 0 раз
Хэш: d3e6833797c89c37e52799a5554cd603625f410b
Размер: 58.47 ГБ (62 781 318 216 байт)
Стать Автором раздачи
 
 
Раздал: 100 ГБ
Скачал: 0 байт
Ратио: Seed.
Сообщения: 187300
Зарегистрирован: 09 апр 2015, 20:00


  • Похожие торренты
    Ответы
    Просмотры
    Последнее сообщение

Вернуться в Криминальная документалистика (HD Video)

Кто сейчас на конференции

Сейчас эту тему просматривают: нет зарегистрированных пользователей и гости: 1

Ресурс не предоставляет электронные версии произведений, а занимается лишь коллекционированием и каталогизацией ссылок, присылаемых и публикуемых на форуме нашими читателями. Если вы являетесь правообладателем какого-либо представленного материала и не желаете чтобы ссылка на него находилась в нашем каталоге, свяжитесь с нами и мы незамедлительно удалим её. Файлы для обмена на трекере предоставлены пользователями сайта, и администрация не несёт ответственности за их содержание. Просьба не заливать файлы, защищенные авторскими правами, а также файлы нелегального содержания!