Музейные тайны / Mysteries at the Museum (2012) SATRip (2 сезон: 1-24 серия из 24)

 
 Статистика раздачи 
Размер: 14.28 ГБ   |  Зарегистрирован: 07 окт 2016, 14:41   |   .torrent скачан: 0 раз
Сидеров: 1  [ 0 байт/сек ]     Личеров: 0  [ 0 байт/сек ]  
  

Музейные тайны / Mysteries at the Museum (2012) SATRip (2 сезон: 1-24 серия из 24)

Сообщение explosiveone » 07 окт 2016, 14:41

Музейные тайны / Mysteries at the Museum (2012) SATRip (2 сезон: 1-24 серия из 24)

Телекомпания: США, The Travel Channel, Optomen Productions
Жанр: Документальный

Участники: Дон Вайлдман

Описание:
Музеи обладают удивительными сокровищами, которые помогают нам больше узнать о нашем прошлом. Однако не все знают, что порой экспонаты скрывают в себе загадки и тайны, полные скандалов и интриг, и даже убийств. Мы отправимся в захватывающее и познавательное, а порой шокирующее путешествие по истории. Мы попадем в самые темные и потаенные уголки музеев, и узнаем о невидимых шпионах, хладнокровных убийцах и паранормальных явлениях.

Продолжительность: ~ 00:42:00 серия
Качество видео: SATRip
Перевод: Одноголосый закадровый, профессиональный

Видео: Xvid, 704x400, ~1800 kbps
Аудио: AC3, 2 ch, 192 Kbps
Код:
Код: Выделить всё
Общее
Полное имя                               : D:\Mysteries at the Museum_s02\s02e01_Siamese Twins_Assassin Umbrella_Capone's Haunted Cell.avi
Формат                                   : AVI
Формат/Информация                        : Audio Video Interleave
Размер файла                             : 609 Мбайт
Продолжительность                        : 42 м. 37 с.
Общий поток                              : 1999 Кбит/сек
Программа кодирования                    : TMPGEnc Video Mastering Works 5 Version. 5.0.6.38
Библиотека кодирования                   : TMPGEnc Video Mastering Works 5 Version. 5.0.6.38

Видео
Идентификатор                            : 0
Формат                                   : MPEG-4 Visual
Профиль формата                          : Advanced Simple@L5
Параметр BVOP формата                    : 2
Параметр QPel формата                    : Нет
Параметр GMC формата                     : Без точки перехода
Параметр матрицы формата                 : Default (H.263)
Режим смешивания                         : Сжатый битовый поток
Идентификатор кодека                     : XVID
Идентификатор кодека/Подсказка           : XviD
Продолжительность                        : 42 м. 37 с.
Битрейт                                  : 1799 Кбит/сек
Ширина                                   : 704 пикселя
Высота                                   : 400 пикселей
Соотношение сторон                       : 16:9
Частота кадров                           : 25,000 кадров/сек
Цветовое пространство                    : YUV
Субдискретизация насыщенности            : 4:2:0
Битовая глубина                          : 8 бит
Тип развёртки                            : Прогрессивная
Метод сжатия                             : С потерями
Бит/(Пиксели*Кадры)                      : 0.256
Размер потока                            : 548 Мбайт (90%)
Библиотека кодирования                   : XviD 73

Аудио
Идентификатор                            : 1
Формат                                   : AC-3
Формат/Информация                        : Audio Coding 3
Расширение режима                        : CM (complete main)
Параметр Endianness формата              : Big
Идентификатор кодека                     : 2000
Продолжительность                        : 42 м. 37 с.
Вид битрейта                             : Постоянный
Битрейт                                  : 192 Кбит/сек
Каналы                                   : 2 канала
Расположение каналов                     : Front: L R
Частота                                  : 48,0 КГц
Частота кадров                           : 31,250 кадров/сек (1536 spf)
Метод сжатия                             : С потерями
Размер потока                            : 58,5 Мбайт (10%)
Выравнивание                             : Соединение по промежуткам
Продолжительность промежутка             : 240  мс. (6,00 видеокадров)
Время предзагрузки промежутка            : 224  мс.

Общее
Полное имя                               : D:\Mysteries at the Museum_s02\s02e02_Annabelle Doll_Bridge Collapse_Whale Attack.avi
Формат                                   : AVI
Формат/Информация                        : Audio Video Interleave
Размер файла                             : 610 Мбайт
Продолжительность                        : 42 м. 39 с.
Общий поток                              : 1998 Кбит/сек
Программа кодирования                    : TMPGEnc Video Mastering Works 5 Version. 5.0.6.38
Библиотека кодирования                   : TMPGEnc Video Mastering Works 5 Version. 5.0.6.38

Видео
Идентификатор                            : 0
Формат                                   : MPEG-4 Visual
Профиль формата                          : Advanced Simple@L5
Параметр BVOP формата                    : 2
Параметр QPel формата                    : Нет
Параметр GMC формата                     : Без точки перехода
Параметр матрицы формата                 : Default (H.263)
Режим смешивания                         : Сжатый битовый поток
Идентификатор кодека                     : XVID
Идентификатор кодека/Подсказка           : XviD
Продолжительность                        : 42 м. 39 с.
Битрейт                                  : 1798 Кбит/сек
Ширина                                   : 704 пикселя
Высота                                   : 400 пикселей
Соотношение сторон                       : 16:9
Частота кадров                           : 25,000 кадров/сек
Цветовое пространство                    : YUV
Субдискретизация насыщенности            : 4:2:0
Битовая глубина                          : 8 бит
Тип развёртки                            : Прогрессивная
Метод сжатия                             : С потерями
Бит/(Пиксели*Кадры)                      : 0.255
Размер потока                            : 549 Мбайт (90%)
Библиотека кодирования                   : XviD 73

Аудио
Идентификатор                            : 1
Формат                                   : AC-3
Формат/Информация                        : Audio Coding 3
Расширение режима                        : CM (complete main)
Параметр Endianness формата              : Big
Идентификатор кодека                     : 2000
Продолжительность                        : 42 м. 39 с.
Вид битрейта                             : Постоянный
Битрейт                                  : 192 Кбит/сек
Каналы                                   : 2 канала
Расположение каналов                     : Front: L R
Частота                                  : 48,0 КГц
Частота кадров                           : 31,250 кадров/сек (1536 spf)
Метод сжатия                             : С потерями
Размер потока                            : 58,6 Мбайт (10%)
Выравнивание                             : Соединение по промежуткам
Продолжительность промежутка             : 240  мс. (6,00 видеокадров)
Время предзагрузки промежутка            : 224  мс.

Общее
Полное имя                               : D:\Mysteries at the Museum_s02\s02e03_Prison Experiment_Butch Cassidy Manuscript_Dueling Mammoths.avi
Формат                                   : AVI
Формат/Информация                        : Audio Video Interleave
Размер файла                             : 610 Мбайт
Продолжительность                        : 42 м. 39 с.
Общий поток                              : 1998 Кбит/сек
Программа кодирования                    : TMPGEnc Video Mastering Works 5 Version. 5.0.6.38
Библиотека кодирования                   : TMPGEnc Video Mastering Works 5 Version. 5.0.6.38

Видео
Идентификатор                            : 0
Формат                                   : MPEG-4 Visual
Профиль формата                          : Advanced Simple@L5
Параметр BVOP формата                    : 2
Параметр QPel формата                    : Нет
Параметр GMC формата                     : Без точки перехода
Параметр матрицы формата                 : Default (H.263)
Режим смешивания                         : Сжатый битовый поток
Идентификатор кодека                     : XVID
Идентификатор кодека/Подсказка           : XviD
Продолжительность                        : 42 м. 39 с.
Битрейт                                  : 1798 Кбит/сек
Ширина                                   : 704 пикселя
Высота                                   : 400 пикселей
Соотношение сторон                       : 16:9
Частота кадров                           : 25,000 кадров/сек
Цветовое пространство                    : YUV
Субдискретизация насыщенности            : 4:2:0
Битовая глубина                          : 8 бит
Тип развёртки                            : Прогрессивная
Метод сжатия                             : С потерями
Бит/(Пиксели*Кадры)                      : 0.255
Размер потока                            : 549 Мбайт (90%)
Библиотека кодирования                   : XviD 73

Аудио
Идентификатор                            : 1
Формат                                   : AC-3
Формат/Информация                        : Audio Coding 3
Расширение режима                        : CM (complete main)
Параметр Endianness формата              : Big
Идентификатор кодека                     : 2000
Продолжительность                        : 42 м. 39 с.
Вид битрейта                             : Постоянный
Битрейт                                  : 192 Кбит/сек
Каналы                                   : 2 канала
Расположение каналов                     : Front: L R
Частота                                  : 48,0 КГц
Частота кадров                           : 31,250 кадров/сек (1536 spf)
Метод сжатия                             : С потерями
Размер потока                            : 58,6 Мбайт (10%)
Выравнивание                             : Соединение по промежуткам
Продолжительность промежутка             : 240  мс. (6,00 видеокадров)
Время предзагрузки промежутка            : 224  мс.

Общее
Полное имя                               : D:\Mysteries at the Museum_s02\s02e04_French Connection_Shipwrecked Gold_Area 51 Plane Crash.avi
Формат                                   : AVI
Формат/Информация                        : Audio Video Interleave
Размер файла                             : 610 Мбайт
Продолжительность                        : 42 м. 39 с.
Общий поток                              : 1998 Кбит/сек
Программа кодирования                    : TMPGEnc Video Mastering Works 5 Version. 5.0.6.38
Библиотека кодирования                   : TMPGEnc Video Mastering Works 5 Version. 5.0.6.38

Видео
Идентификатор                            : 0
Формат                                   : MPEG-4 Visual
Профиль формата                          : Advanced Simple@L5
Параметр BVOP формата                    : 2
Параметр QPel формата                    : Нет
Параметр GMC формата                     : Без точки перехода
Параметр матрицы формата                 : Default (H.263)
Режим смешивания                         : Сжатый битовый поток
Идентификатор кодека                     : XVID
Идентификатор кодека/Подсказка           : XviD
Продолжительность                        : 42 м. 39 с.
Битрейт                                  : 1799 Кбит/сек
Ширина                                   : 704 пикселя
Высота                                   : 400 пикселей
Соотношение сторон                       : 16:9
Частота кадров                           : 25,000 кадров/сек
Цветовое пространство                    : YUV
Субдискретизация насыщенности            : 4:2:0
Битовая глубина                          : 8 бит
Тип развёртки                            : Прогрессивная
Метод сжатия                             : С потерями
Бит/(Пиксели*Кадры)                      : 0.256
Размер потока                            : 549 Мбайт (90%)
Библиотека кодирования                   : XviD 73

Аудио
Идентификатор                            : 1
Формат                                   : AC-3
Формат/Информация                        : Audio Coding 3
Расширение режима                        : CM (complete main)
Параметр Endianness формата              : Big
Идентификатор кодека                     : 2000
Продолжительность                        : 42 м. 39 с.
Вид битрейта                             : Постоянный
Битрейт                                  : 192 Кбит/сек
Каналы                                   : 2 канала
Расположение каналов                     : Front: L R
Частота                                  : 48,0 КГц
Частота кадров                           : 31,250 кадров/сек (1536 spf)
Метод сжатия                             : С потерями
Размер потока                            : 58,6 Мбайт (10%)
Выравнивание                             : Соединение по промежуткам
Продолжительность промежутка             : 240  мс. (6,00 видеокадров)
Время предзагрузки промежутка            : 224  мс.

Общее
Полное имя                               : D:\Mysteries at the Museum_s02\s02e05_S.S. Eastland Disaster_Lost Gold Mine_Smuttynose Murders.avi
Формат                                   : AVI
Формат/Информация                        : Audio Video Interleave
Размер файла                             : 610 Мбайт
Продолжительность                        : 42 м. 40 с.
Общий поток                              : 1998 Кбит/сек
Программа кодирования                    : TMPGEnc Video Mastering Works 5 Version. 5.0.6.38
Библиотека кодирования                   : TMPGEnc Video Mastering Works 5 Version. 5.0.6.38

Видео
Идентификатор                            : 0
Формат                                   : MPEG-4 Visual
Профиль формата                          : Advanced Simple@L5
Параметр BVOP формата                    : 2
Параметр QPel формата                    : Нет
Параметр GMC формата                     : Без точки перехода
Параметр матрицы формата                 : Default (H.263)
Режим смешивания                         : Сжатый битовый поток
Идентификатор кодека                     : XVID
Идентификатор кодека/Подсказка           : XviD
Продолжительность                        : 42 м. 40 с.
Битрейт                                  : 1798 Кбит/сек
Ширина                                   : 704 пикселя
Высота                                   : 400 пикселей
Соотношение сторон                       : 16:9
Частота кадров                           : 25,000 кадров/сек
Цветовое пространство                    : YUV
Субдискретизация насыщенности            : 4:2:0
Битовая глубина                          : 8 бит
Тип развёртки                            : Прогрессивная
Метод сжатия                             : С потерями
Бит/(Пиксели*Кадры)                      : 0.255
Размер потока                            : 549 Мбайт (90%)
Библиотека кодирования                   : XviD 73

Аудио
Идентификатор                            : 1
Формат                                   : AC-3
Формат/Информация                        : Audio Coding 3
Расширение режима                        : CM (complete main)
Параметр Endianness формата              : Big
Идентификатор кодека                     : 2000
Продолжительность                        : 42 м. 40 с.
Вид битрейта                             : Постоянный
Битрейт                                  : 192 Кбит/сек
Каналы                                   : 2 канала
Расположение каналов                     : Front: L R
Частота                                  : 48,0 КГц
Частота кадров                           : 31,250 кадров/сек (1536 spf)
Метод сжатия                             : С потерями
Размер потока                            : 58,6 Мбайт (10%)
Выравнивание                             : Соединение по промежуткам
Продолжительность промежутка             : 240  мс. (6,00 видеокадров)
Время предзагрузки промежутка            : 224  мс.

Общее
Полное имя                               : D:\Mysteries at the Museum_s02\s02e06_American Spy_Belle Gunness_Oarfish.avi
Формат                                   : AVI
Формат/Информация                        : Audio Video Interleave
Размер файла                             : 609 Мбайт
Продолжительность                        : 42 м. 34 с.
Общий поток                              : 1999 Кбит/сек
Программа кодирования                    : TMPGEnc Video Mastering Works 5 Version. 5.0.6.38
Библиотека кодирования                   : TMPGEnc Video Mastering Works 5 Version. 5.0.6.38

Видео
Идентификатор                            : 0
Формат                                   : MPEG-4 Visual
Профиль формата                          : Advanced Simple@L5
Параметр BVOP формата                    : 2
Параметр QPel формата                    : Нет
Параметр GMC формата                     : Без точки перехода
Параметр матрицы формата                 : Default (H.263)
Режим смешивания                         : Сжатый битовый поток
Идентификатор кодека                     : XVID
Идентификатор кодека/Подсказка           : XviD
Продолжительность                        : 42 м. 34 с.
Битрейт                                  : 1799 Кбит/сек
Ширина                                   : 704 пикселя
Высота                                   : 400 пикселей
Соотношение сторон                       : 16:9
Частота кадров                           : 25,000 кадров/сек
Цветовое пространство                    : YUV
Субдискретизация насыщенности            : 4:2:0
Битовая глубина                          : 8 бит
Тип развёртки                            : Прогрессивная
Метод сжатия                             : С потерями
Бит/(Пиксели*Кадры)                      : 0.256
Размер потока                            : 548 Мбайт (90%)
Библиотека кодирования                   : XviD 73

Аудио
Идентификатор                            : 1
Формат                                   : AC-3
Формат/Информация                        : Audio Coding 3
Расширение режима                        : CM (complete main)
Параметр Endianness формата              : Big
Идентификатор кодека                     : 2000
Продолжительность                        : 42 м. 33 с.
Вид битрейта                             : Постоянный
Битрейт                                  : 192 Кбит/сек
Каналы                                   : 2 канала
Расположение каналов                     : Front: L R
Частота                                  : 48,0 КГц
Частота кадров                           : 31,250 кадров/сек (1536 spf)
Метод сжатия                             : С потерями
Размер потока                            : 58,5 Мбайт (10%)
Выравнивание                             : Соединение по промежуткам
Продолжительность промежутка             : 240  мс. (6,00 видеокадров)
Время предзагрузки промежутка            : 224  мс.

Общее
Полное имя                               : D:\Mysteries at the Museum_s02\s02e07_Shrunken Heads_Greeley Expedition_Broken Arrow.avi
Формат                                   : AVI
Формат/Информация                        : Audio Video Interleave
Размер файла                             : 608 Мбайт
Продолжительность                        : 42 м. 33 с.
Общий поток                              : 1998 Кбит/сек
Программа кодирования                    : TMPGEnc Video Mastering Works 5 Version. 5.0.6.38
Библиотека кодирования                   : TMPGEnc Video Mastering Works 5 Version. 5.0.6.38

Видео
Идентификатор                            : 0
Формат                                   : MPEG-4 Visual
Профиль формата                          : Advanced Simple@L5
Параметр BVOP формата                    : 2
Параметр QPel формата                    : Нет
Параметр GMC формата                     : Без точки перехода
Параметр матрицы формата                 : Default (H.263)
Режим смешивания                         : Сжатый битовый поток
Идентификатор кодека                     : XVID
Идентификатор кодека/Подсказка           : XviD
Продолжительность                        : 42 м. 33 с.
Битрейт                                  : 1799 Кбит/сек
Ширина                                   : 704 пикселя
Высота                                   : 400 пикселей
Соотношение сторон                       : 16:9
Частота кадров                           : 25,000 кадров/сек
Цветовое пространство                    : YUV
Субдискретизация насыщенности            : 4:2:0
Битовая глубина                          : 8 бит
Тип развёртки                            : Прогрессивная
Метод сжатия                             : С потерями
Бит/(Пиксели*Кадры)                      : 0.255
Размер потока                            : 547 Мбайт (90%)
Библиотека кодирования                   : XviD 73

Аудио
Идентификатор                            : 1
Формат                                   : AC-3
Формат/Информация                        : Audio Coding 3
Расширение режима                        : CM (complete main)
Параметр Endianness формата              : Big
Идентификатор кодека                     : 2000
Продолжительность                        : 42 м. 33 с.
Вид битрейта                             : Постоянный
Битрейт                                  : 192 Кбит/сек
Каналы                                   : 2 канала
Расположение каналов                     : Front: L R
Частота                                  : 48,0 КГц
Частота кадров                           : 31,250 кадров/сек (1536 spf)
Метод сжатия                             : С потерями
Размер потока                            : 58,4 Мбайт (10%)
Выравнивание                             : Соединение по промежуткам
Продолжительность промежутка             : 480  мс. (12,00 видеокадров)

Общее
Полное имя                               : D:\Mysteries at the Museum_s02\s02e08_La Raid_Bioterror_Automation.avi
Формат                                   : AVI
Формат/Информация                        : Audio Video Interleave
Размер файла                             : 608 Мбайт
Продолжительность                        : 42 м. 31 с.
Общий поток                              : 1998 Кбит/сек
Программа кодирования                    : TMPGEnc Video Mastering Works 5 Version. 5.0.6.38
Библиотека кодирования                   : TMPGEnc Video Mastering Works 5 Version. 5.0.6.38

Видео
Идентификатор                            : 0
Формат                                   : MPEG-4 Visual
Профиль формата                          : Advanced Simple@L5
Параметр BVOP формата                    : 2
Параметр QPel формата                    : Нет
Параметр GMC формата                     : Без точки перехода
Параметр матрицы формата                 : Default (H.263)
Режим смешивания                         : Сжатый битовый поток
Идентификатор кодека                     : XVID
Идентификатор кодека/Подсказка           : XviD
Продолжительность                        : 42 м. 31 с.
Битрейт                                  : 1798 Кбит/сек
Ширина                                   : 704 пикселя
Высота                                   : 400 пикселей
Соотношение сторон                       : 16:9
Частота кадров                           : 25,000 кадров/сек
Цветовое пространство                    : YUV
Субдискретизация насыщенности            : 4:2:0
Битовая глубина                          : 8 бит
Тип развёртки                            : Прогрессивная
Метод сжатия                             : С потерями
Бит/(Пиксели*Кадры)                      : 0.255
Размер потока                            : 547 Мбайт (90%)
Библиотека кодирования                   : XviD 73

Аудио
Идентификатор                            : 1
Формат                                   : AC-3
Формат/Информация                        : Audio Coding 3
Расширение режима                        : CM (complete main)
Параметр Endianness формата              : Big
Идентификатор кодека                     : 2000
Продолжительность                        : 42 м. 30 с.
Вид битрейта                             : Постоянный
Битрейт                                  : 192 Кбит/сек
Каналы                                   : 2 канала
Расположение каналов                     : Front: L R
Частота                                  : 48,0 КГц
Частота кадров                           : 31,250 кадров/сек (1536 spf)
Метод сжатия                             : С потерями
Размер потока                            : 58,4 Мбайт (10%)
Выравнивание                             : Соединение по промежуткам
Продолжительность промежутка             : 240  мс. (6,00 видеокадров)
Время предзагрузки промежутка            : 224  мс.

Общее
Полное имя                               : D:\Mysteries at the Museum_s02\s02e09_Outlaw Shoes_Astrochimp_Message in a Bottle.avi
Формат                                   : AVI
Формат/Информация                        : Audio Video Interleave
Размер файла                             : 610 Мбайт
Продолжительность                        : 42 м. 40 с.
Общий поток                              : 1998 Кбит/сек
Программа кодирования                    : TMPGEnc Video Mastering Works 5 Version. 5.0.6.38
Библиотека кодирования                   : TMPGEnc Video Mastering Works 5 Version. 5.0.6.38

Видео
Идентификатор                            : 0
Формат                                   : MPEG-4 Visual
Профиль формата                          : Advanced Simple@L5
Параметр BVOP формата                    : 2
Параметр QPel формата                    : Нет
Параметр GMC формата                     : Без точки перехода
Параметр матрицы формата                 : Default (H.263)
Режим смешивания                         : Сжатый битовый поток
Идентификатор кодека                     : XVID
Идентификатор кодека/Подсказка           : XviD
Продолжительность                        : 42 м. 40 с.
Битрейт                                  : 1799 Кбит/сек
Ширина                                   : 704 пикселя
Высота                                   : 400 пикселей
Соотношение сторон                       : 16:9
Частота кадров                           : 25,000 кадров/сек
Цветовое пространство                    : YUV
Субдискретизация насыщенности            : 4:2:0
Битовая глубина                          : 8 бит
Тип развёртки                            : Прогрессивная
Метод сжатия                             : С потерями
Бит/(Пиксели*Кадры)                      : 0.255
Размер потока                            : 549 Мбайт (90%)
Библиотека кодирования                   : XviD 73

Аудио
Идентификатор                            : 1
Формат                                   : AC-3
Формат/Информация                        : Audio Coding 3
Расширение режима                        : CM (complete main)
Параметр Endianness формата              : Big
Идентификатор кодека                     : 2000
Продолжительность                        : 42 м. 40 с.
Вид битрейта                             : Постоянный
Битрейт                                  : 192 Кбит/сек
Каналы                                   : 2 канала
Расположение каналов                     : Front: L R
Частота                                  : 48,0 КГц
Частота кадров                           : 31,250 кадров/сек (1536 spf)
Метод сжатия                             : С потерями
Размер потока                            : 58,6 Мбайт (10%)
Выравнивание                             : Соединение по промежуткам
Продолжительность промежутка             : 240  мс. (6,00 видеокадров)
Время предзагрузки промежутка            : 224  мс.

Общее
Полное имя                               : D:\Mysteries at the Museum_s02\s02e10_ Anthrax_Marilyn Monroe_Hunley Submarine.avi
Формат                                   : AVI
Формат/Информация                        : Audio Video Interleave
Размер файла                             : 609 Мбайт
Продолжительность                        : 42 м. 38 с.
Общий поток                              : 1998 Кбит/сек
Программа кодирования                    : TMPGEnc Video Mastering Works 5 Version. 5.0.6.38
Библиотека кодирования                   : TMPGEnc Video Mastering Works 5 Version. 5.0.6.38

Видео
Идентификатор                            : 0
Формат                                   : MPEG-4 Visual
Профиль формата                          : Advanced Simple@L5
Параметр BVOP формата                    : 2
Параметр QPel формата                    : Нет
Параметр GMC формата                     : Без точки перехода
Параметр матрицы формата                 : Default (H.263)
Режим смешивания                         : Сжатый битовый поток
Идентификатор кодека                     : XVID
Идентификатор кодека/Подсказка           : XviD
Продолжительность                        : 42 м. 38 с.
Битрейт                                  : 1799 Кбит/сек
Ширина                                   : 704 пикселя
Высота                                   : 400 пикселей
Соотношение сторон                       : 16:9
Частота кадров                           : 25,000 кадров/сек
Цветовое пространство                    : YUV
Субдискретизация насыщенности            : 4:2:0
Битовая глубина                          : 8 бит
Тип развёртки                            : Прогрессивная
Метод сжатия                             : С потерями
Бит/(Пиксели*Кадры)                      : 0.255
Размер потока                            : 549 Мбайт (90%)
Библиотека кодирования                   : XviD 73

Аудио
Идентификатор                            : 1
Формат                                   : AC-3
Формат/Информация                        : Audio Coding 3
Расширение режима                        : CM (complete main)
Параметр Endianness формата              : Big
Идентификатор кодека                     : 2000
Продолжительность                        : 42 м. 38 с.
Вид битрейта                             : Постоянный
Битрейт                                  : 192 Кбит/сек
Каналы                                   : 2 канала
Расположение каналов                     : Front: L R
Частота                                  : 48,0 КГц
Частота кадров                           : 31,250 кадров/сек (1536 spf)
Метод сжатия                             : С потерями
Размер потока                            : 58,6 Мбайт (10%)
Выравнивание                             : Соединение по промежуткам
Продолжительность промежутка             : 240  мс. (6,00 видеокадров)
Время предзагрузки промежутка            : 224  мс.

Общее
Полное имя                               : D:\Mysteries at the Museum_s02\s02e11_Lotto Scam_Somali Pirates_Haunted Plane.avi
Формат                                   : AVI
Формат/Информация                        : Audio Video Interleave
Размер файла                             : 614 Мбайт
Продолжительность                        : 43 м. 1 с.
Общий поток                              : 1996 Кбит/сек
Программа кодирования                    : TMPGEnc Video Mastering Works 5 Version. 5.0.6.38
Библиотека кодирования                   : TMPGEnc Video Mastering Works 5 Version. 5.0.6.38

Видео
Идентификатор                            : 0
Формат                                   : MPEG-4 Visual
Профиль формата                          : Advanced Simple@L5
Параметр BVOP формата                    : 2
Параметр QPel формата                    : Нет
Параметр GMC формата                     : Без точки перехода
Параметр матрицы формата                 : Default (H.263)
Режим смешивания                         : Сжатый битовый поток
Идентификатор кодека                     : XVID
Идентификатор кодека/Подсказка           : XviD
Продолжительность                        : 43 м. 1 с.
Битрейт                                  : 1797 Кбит/сек
Ширина                                   : 704 пикселя
Высота                                   : 400 пикселей
Соотношение сторон                       : 16:9
Частота кадров                           : 25,000 кадров/сек
Цветовое пространство                    : YUV
Субдискретизация насыщенности            : 4:2:0
Битовая глубина                          : 8 бит
Тип развёртки                            : Прогрессивная
Метод сжатия                             : С потерями
Бит/(Пиксели*Кадры)                      : 0.255
Размер потока                            : 553 Мбайт (90%)
Библиотека кодирования                   : XviD 73

Аудио
Идентификатор                            : 1
Формат                                   : AC-3
Формат/Информация                        : Audio Coding 3
Расширение режима                        : CM (complete main)
Параметр Endianness формата              : Big
Идентификатор кодека                     : 2000
Продолжительность                        : 43 м. 0 с.
Вид битрейта                             : Постоянный
Битрейт                                  : 192 Кбит/сек
Каналы                                   : 2 канала
Расположение каналов                     : Front: L R
Частота                                  : 48,0 КГц
Частота кадров                           : 31,250 кадров/сек (1536 spf)
Метод сжатия                             : С потерями
Размер потока                            : 59,1 Мбайт (10%)
Выравнивание                             : Соединение по промежуткам
Продолжительность промежутка             : 240  мс. (6,00 видеокадров)
Время предзагрузки промежутка            : 224  мс.

Общее
Полное имя                               : D:\Mysteries at the Museum_s02\s02e12_Flying Car_Prison Riot_Dreamland Fire.avi
Формат                                   : AVI
Формат/Информация                        : Audio Video Interleave
Размер файла                             : 610 Мбайт
Продолжительность                        : 42 м. 39 с.
Общий поток                              : 1998 Кбит/сек
Программа кодирования                    : TMPGEnc Video Mastering Works 5 Version. 5.0.6.38
Библиотека кодирования                   : TMPGEnc Video Mastering Works 5 Version. 5.0.6.38

Видео
Идентификатор                            : 0
Формат                                   : MPEG-4 Visual
Профиль формата                          : Advanced Simple@L5
Параметр BVOP формата                    : 2
Параметр QPel формата                    : Нет
Параметр GMC формата                     : Без точки перехода
Параметр матрицы формата                 : Default (H.263)
Режим смешивания                         : Сжатый битовый поток
Идентификатор кодека                     : XVID
Идентификатор кодека/Подсказка           : XviD
Продолжительность                        : 42 м. 39 с.
Битрейт                                  : 1799 Кбит/сек
Ширина                                   : 704 пикселя
Высота                                   : 400 пикселей
Соотношение сторон                       : 16:9
Частота кадров                           : 25,000 кадров/сек
Цветовое пространство                    : YUV
Субдискретизация насыщенности            : 4:2:0
Битовая глубина                          : 8 бит
Тип развёртки                            : Прогрессивная
Метод сжатия                             : С потерями
Бит/(Пиксели*Кадры)                      : 0.255
Размер потока                            : 549 Мбайт (90%)
Библиотека кодирования                   : XviD 73

Аудио
Идентификатор                            : 1
Формат                                   : AC-3
Формат/Информация                        : Audio Coding 3
Расширение режима                        : CM (complete main)
Параметр Endianness формата              : Big
Идентификатор кодека                     : 2000
Продолжительность                        : 42 м. 38 с.
Вид битрейта                             : Постоянный
Битрейт                                  : 192 Кбит/сек
Каналы                                   : 2 канала
Расположение каналов                     : Front: L R
Частота                                  : 48,0 КГц
Частота кадров                           : 31,250 кадров/сек (1536 spf)
Метод сжатия                             : С потерями
Размер потока                            : 58,6 Мбайт (10%)
Выравнивание                             : Соединение по промежуткам
Продолжительность промежутка             : 240  мс. (6,00 видеокадров)
Время предзагрузки промежутка            : 224  мс.

Общее
Полное имя                               : D:\Mysteries at the Museum_s02\s02e13_Brinks Heist_Saddam's Spider Hole_Rindocus.avi
Формат                                   : AVI
Формат/Информация                        : Audio Video Interleave
Размер файла                             : 609 Мбайт
Продолжительность                        : 42 м. 34 с.
Общий поток                              : 1999 Кбит/сек
Программа кодирования                    : TMPGEnc Video Mastering Works 5 Version. 5.0.6.38
Библиотека кодирования                   : TMPGEnc Video Mastering Works 5 Version. 5.0.6.38

Видео
Идентификатор                            : 0
Формат                                   : MPEG-4 Visual
Профиль формата                          : Advanced Simple@L5
Параметр BVOP формата                    : 2
Параметр QPel формата                    : Нет
Параметр GMC формата                     : Без точки перехода
Параметр матрицы формата                 : Default (H.263)
Режим смешивания                         : Сжатый битовый поток
Идентификатор кодека                     : XVID
Идентификатор кодека/Подсказка           : XviD
Продолжительность                        : 42 м. 34 с.
Битрейт                                  : 1799 Кбит/сек
Ширина                                   : 704 пикселя
Высота                                   : 400 пикселей
Соотношение сторон                       : 16:9
Частота кадров                           : 25,000 кадров/сек
Цветовое пространство                    : YUV
Субдискретизация насыщенности            : 4:2:0
Битовая глубина                          : 8 бит
Тип развёртки                            : Прогрессивная
Метод сжатия                             : С потерями
Бит/(Пиксели*Кадры)                      : 0.256
Размер потока                            : 548 Мбайт (90%)
Библиотека кодирования                   : XviD 73

Аудио
Идентификатор                            : 1
Формат                                   : AC-3
Формат/Информация                        : Audio Coding 3
Расширение режима                        : CM (complete main)
Параметр Endianness формата              : Big
Идентификатор кодека                     : 2000
Продолжительность                        : 42 м. 34 с.
Вид битрейта                             : Постоянный
Битрейт                                  : 192 Кбит/сек
Каналы                                   : 2 канала
Расположение каналов                     : Front: L R
Частота                                  : 48,0 КГц
Частота кадров                           : 31,250 кадров/сек (1536 spf)
Метод сжатия                             : С потерями
Размер потока                            : 58,5 Мбайт (10%)
Выравнивание                             : Соединение по промежуткам
Продолжительность промежутка             : 240  мс. (6,00 видеокадров)
Время предзагрузки промежутка            : 224  мс.

Общее
Полное имя                               : D:\Mysteries at the Museum_s02\s02e14_The Donner Party_the Shoe Bomber_FDRS Cane.avi
Формат                                   : AVI
Формат/Информация                        : Audio Video Interleave
Размер файла                             : 610 Мбайт
Продолжительность                        : 42 м. 40 с.
Общий поток                              : 1998 Кбит/сек
Программа кодирования                    : TMPGEnc Video Mastering Works 5 Version. 5.0.6.38
Библиотека кодирования                   : TMPGEnc Video Mastering Works 5 Version. 5.0.6.38

Видео
Идентификатор                            : 0
Формат                                   : MPEG-4 Visual
Профиль формата                          : Advanced Simple@L5
Параметр BVOP формата                    : 2
Параметр QPel формата                    : Нет
Параметр GMC формата                     : Без точки перехода
Параметр матрицы формата                 : Default (H.263)
Режим смешивания                         : Сжатый битовый поток
Идентификатор кодека                     : XVID
Идентификатор кодека/Подсказка           : XviD
Продолжительность                        : 42 м. 40 с.
Битрейт                                  : 1799 Кбит/сек
Ширина                                   : 704 пикселя
Высота                                   : 400 пикселей
Соотношение сторон                       : 16:9
Частота кадров                           : 25,000 кадров/сек
Цветовое пространство                    : YUV
Субдискретизация насыщенности            : 4:2:0
Битовая глубина                          : 8 бит
Тип развёртки                            : Прогрессивная
Метод сжатия                             : С потерями
Бит/(Пиксели*Кадры)                      : 0.255
Размер потока                            : 549 Мбайт (90%)
Библиотека кодирования                   : XviD 73

Аудио
Идентификатор                            : 1
Формат                                   : AC-3
Формат/Информация                        : Audio Coding 3
Расширение режима                        : CM (complete main)
Параметр Endianness формата              : Big
Идентификатор кодека                     : 2000
Продолжительность                        : 42 м. 40 с.
Вид битрейта                             : Постоянный
Битрейт                                  : 192 Кбит/сек
Каналы                                   : 2 канала
Расположение каналов                     : Front: L R
Частота                                  : 48,0 КГц
Частота кадров                           : 31,250 кадров/сек (1536 spf)
Метод сжатия                             : С потерями
Размер потока                            : 58,6 Мбайт (10%)
Выравнивание                             : Соединение по промежуткам
Продолжительность промежутка             : 240  мс. (6,00 видеокадров)
Время предзагрузки промежутка            : 224  мс.

Общее
Полное имя                               : D:\Mysteries at the Museum_s02\s02e15_Boston Molasses Disaster_D.B. Cooper_Buddy Holly.avi
Формат                                   : AVI
Формат/Информация                        : Audio Video Interleave
Размер файла                             : 608 Мбайт
Продолжительность                        : 42 м. 31 с.
Общий поток                              : 1998 Кбит/сек
Программа кодирования                    : TMPGEnc Video Mastering Works 5 Version. 5.0.6.38
Библиотека кодирования                   : TMPGEnc Video Mastering Works 5 Version. 5.0.6.38

Видео
Идентификатор                            : 0
Формат                                   : MPEG-4 Visual
Профиль формата                          : Advanced Simple@L5
Параметр BVOP формата                    : 2
Параметр QPel формата                    : Нет
Параметр GMC формата                     : Без точки перехода
Параметр матрицы формата                 : Default (H.263)
Режим смешивания                         : Сжатый битовый поток
Идентификатор кодека                     : XVID
Идентификатор кодека/Подсказка           : XviD
Продолжительность                        : 42 м. 31 с.
Битрейт                                  : 1799 Кбит/сек
Ширина                                   : 704 пикселя
Высота                                   : 400 пикселей
Соотношение сторон                       : 16:9
Частота кадров                           : 25,000 кадров/сек
Цветовое пространство                    : YUV
Субдискретизация насыщенности            : 4:2:0
Битовая глубина                          : 8 бит
Тип развёртки                            : Прогрессивная
Метод сжатия                             : С потерями
Бит/(Пиксели*Кадры)                      : 0.256
Размер потока                            : 547 Мбайт (90%)
Библиотека кодирования                   : XviD 73

Аудио
Идентификатор                            : 1
Формат                                   : AC-3
Формат/Информация                        : Audio Coding 3
Расширение режима                        : CM (complete main)
Параметр Endianness формата              : Big
Идентификатор кодека                     : 2000
Продолжительность                        : 42 м. 31 с.
Вид битрейта                             : Постоянный
Битрейт                                  : 192 Кбит/сек
Каналы                                   : 2 канала
Расположение каналов                     : Front: L R
Частота                                  : 48,0 КГц
Частота кадров                           : 31,250 кадров/сек (1536 spf)
Метод сжатия                             : С потерями
Размер потока                            : 58,4 Мбайт (10%)
Выравнивание                             : Соединение по промежуткам
Продолжительность промежутка             : 240  мс. (6,00 видеокадров)
Время предзагрузки промежутка            : 224  мс.

Общее
Полное имя                               : D:\Mysteries at the Museum_s02\s02e16_Einstein's Brain_Morgan Affair_Brass Knuckles.avi
Формат                                   : AVI
Формат/Информация                        : Audio Video Interleave
Размер файла                             : 608 Мбайт
Продолжительность                        : 42 м. 31 с.
Общий поток                              : 1999 Кбит/сек
Программа кодирования                    : TMPGEnc Video Mastering Works 5 Version. 5.0.6.38
Библиотека кодирования                   : TMPGEnc Video Mastering Works 5 Version. 5.0.6.38

Видео
Идентификатор                            : 0
Формат                                   : MPEG-4 Visual
Профиль формата                          : Advanced Simple@L5
Параметр BVOP формата                    : 2
Параметр QPel формата                    : Нет
Параметр GMC формата                     : Без точки перехода
Параметр матрицы формата                 : Default (H.263)
Режим смешивания                         : Сжатый битовый поток
Идентификатор кодека                     : XVID
Идентификатор кодека/Подсказка           : XviD
Продолжительность                        : 42 м. 31 с.
Битрейт                                  : 1800 Кбит/сек
Ширина                                   : 704 пикселя
Высота                                   : 400 пикселей
Соотношение сторон                       : 16:9
Частота кадров                           : 25,000 кадров/сек
Цветовое пространство                    : YUV
Субдискретизация насыщенности            : 4:2:0
Битовая глубина                          : 8 бит
Тип развёртки                            : Прогрессивная
Метод сжатия                             : С потерями
Бит/(Пиксели*Кадры)                      : 0.256
Размер потока                            : 547 Мбайт (90%)
Библиотека кодирования                   : XviD 73

Аудио
Идентификатор                            : 1
Формат                                   : AC-3
Формат/Информация                        : Audio Coding 3
Расширение режима                        : CM (complete main)
Параметр Endianness формата              : Big
Идентификатор кодека                     : 2000
Продолжительность                        : 42 м. 31 с.
Вид битрейта                             : Постоянный
Битрейт                                  : 192 Кбит/сек
Каналы                                   : 2 канала
Расположение каналов                     : Front: L R
Частота                                  : 48,0 КГц
Частота кадров                           : 31,250 кадров/сек (1536 spf)
Метод сжатия                             : С потерями
Размер потока                            : 58,4 Мбайт (10%)
Выравнивание                             : Соединение по промежуткам
Продолжительность промежутка             : 240  мс. (6,00 видеокадров)
Время предзагрузки промежутка            : 224  мс.

Общее
Полное имя                               : D:\Mysteries at the Museum_s02\s02e17_Keely's Motor_Reagan Limousine_Audubon's Mystery Book.avi
Формат                                   : AVI
Формат/Информация                        : Audio Video Interleave
Размер файла                             : 608 Мбайт
Продолжительность                        : 42 м. 31 с.
Общий поток                              : 1998 Кбит/сек
Программа кодирования                    : TMPGEnc Video Mastering Works 5 Version. 5.0.6.38
Библиотека кодирования                   : TMPGEnc Video Mastering Works 5 Version. 5.0.6.38

Видео
Идентификатор                            : 0
Формат                                   : MPEG-4 Visual
Профиль формата                          : Advanced Simple@L5
Параметр BVOP формата                    : 2
Параметр QPel формата                    : Нет
Параметр GMC формата                     : Без точки перехода
Параметр матрицы формата                 : Default (H.263)
Режим смешивания                         : Сжатый битовый поток
Идентификатор кодека                     : XVID
Идентификатор кодека/Подсказка           : XviD
Продолжительность                        : 42 м. 31 с.
Битрейт                                  : 1799 Кбит/сек
Ширина                                   : 704 пикселя
Высота                                   : 400 пикселей
Соотношение сторон                       : 16:9
Частота кадров                           : 25,000 кадров/сек
Цветовое пространство                    : YUV
Субдискретизация насыщенности            : 4:2:0
Битовая глубина                          : 8 бит
Тип развёртки                            : Прогрессивная
Метод сжатия                             : С потерями
Бит/(Пиксели*Кадры)                      : 0.255
Размер потока                            : 547 Мбайт (90%)
Библиотека кодирования                   : XviD 73

Аудио
Идентификатор                            : 1
Формат                                   : AC-3
Формат/Информация                        : Audio Coding 3
Расширение режима                        : CM (complete main)
Параметр Endianness формата              : Big
Идентификатор кодека                     : 2000
Продолжительность                        : 42 м. 31 с.
Вид битрейта                             : Постоянный
Битрейт                                  : 192 Кбит/сек
Каналы                                   : 2 канала
Расположение каналов                     : Front: L R
Частота                                  : 48,0 КГц
Частота кадров                           : 31,250 кадров/сек (1536 spf)
Метод сжатия                             : С потерями
Размер потока                            : 58,4 Мбайт (10%)
Выравнивание                             : Соединение по промежуткам
Продолжительность промежутка             : 240  мс. (6,00 видеокадров)
Время предзагрузки промежутка            : 224  мс.

Общее
Полное имя                               : D:\Mysteries at the Museum_s02\s02e18_Lost Colony of Roanoke_Linda Hazzard_Deep Blue.avi
Формат                                   : AVI
Формат/Информация                        : Audio Video Interleave
Размер файла                             : 608 Мбайт
Продолжительность                        : 42 м. 30 с.
Общий поток                              : 1998 Кбит/сек
Программа кодирования                    : TMPGEnc Video Mastering Works 5 Version. 5.0.6.38
Библиотека кодирования                   : TMPGEnc Video Mastering Works 5 Version. 5.0.6.38

Видео
Идентификатор                            : 0
Формат                                   : MPEG-4 Visual
Профиль формата                          : Advanced Simple@L5
Параметр BVOP формата                    : 2
Параметр QPel формата                    : Нет
Параметр GMC формата                     : Без точки перехода
Параметр матрицы формата                 : Default (H.263)
Режим смешивания                         : Сжатый битовый поток
Идентификатор кодека                     : XVID
Идентификатор кодека/Подсказка           : XviD
Продолжительность                        : 42 м. 30 с.
Битрейт                                  : 1799 Кбит/сек
Ширина                                   : 704 пикселя
Высота                                   : 400 пикселей
Соотношение сторон                       : 16:9
Частота кадров                           : 25,000 кадров/сек
Цветовое пространство                    : YUV
Субдискретизация насыщенности            : 4:2:0
Битовая глубина                          : 8 бит
Тип развёртки                            : Прогрессивная
Метод сжатия                             : С потерями
Бит/(Пиксели*Кадры)                      : 0.255
Размер потока                            : 547 Мбайт (90%)
Библиотека кодирования                   : XviD 73

Аудио
Идентификатор                            : 1
Формат                                   : AC-3
Формат/Информация                        : Audio Coding 3
Расширение режима                        : CM (complete main)
Параметр Endianness формата              : Big
Идентификатор кодека                     : 2000
Продолжительность                        : 42 м. 30 с.
Вид битрейта                             : Постоянный
Битрейт                                  : 192 Кбит/сек
Каналы                                   : 2 канала
Расположение каналов                     : Front: L R
Частота                                  : 48,0 КГц
Частота кадров                           : 31,250 кадров/сек (1536 spf)
Метод сжатия                             : С потерями
Размер потока                            : 58,4 Мбайт (10%)
Выравнивание                             : Соединение по промежуткам
Продолжительность промежутка             : 240  мс. (6,00 видеокадров)
Время предзагрузки промежутка            : 224  мс.

Общее
Полное имя                               : D:\Mysteries at the Museum_s02\s02e19_Black Dahlia_French Angel_Sterling Hall Bombing.avi
Формат                                   : AVI
Формат/Информация                        : Audio Video Interleave
Размер файла                             : 610 Мбайт
Продолжительность                        : 42 м. 39 с.
Общий поток                              : 1998 Кбит/сек
Программа кодирования                    : TMPGEnc Video Mastering Works 5 Version. 5.0.6.38
Библиотека кодирования                   : TMPGEnc Video Mastering Works 5 Version. 5.0.6.38

Видео
Идентификатор                            : 0
Формат                                   : MPEG-4 Visual
Профиль формата                          : Advanced Simple@L5
Параметр BVOP формата                    : 2
Параметр QPel формата                    : Нет
Параметр GMC формата                     : Без точки перехода
Параметр матрицы формата                 : Default (H.263)
Режим смешивания                         : Сжатый битовый поток
Идентификатор кодека                     : XVID
Идентификатор кодека/Подсказка           : XviD
Продолжительность                        : 42 м. 39 с.
Битрейт                                  : 1799 Кбит/сек
Ширина                                   : 704 пикселя
Высота                                   : 400 пикселей
Соотношение сторон                       : 16:9
Частота кадров                           : 25,000 кадров/сек
Цветовое пространство                    : YUV
Субдискретизация насыщенности            : 4:2:0
Битовая глубина                          : 8 бит
Тип развёртки                            : Прогрессивная
Метод сжатия                             : С потерями
Бит/(Пиксели*Кадры)                      : 0.255
Размер потока                            : 549 Мбайт (90%)
Библиотека кодирования                   : XviD 73

Аудио
Идентификатор                            : 1
Формат                                   : AC-3
Формат/Информация                        : Audio Coding 3
Расширение режима                        : CM (complete main)
Параметр Endianness формата              : Big
Идентификатор кодека                     : 2000
Продолжительность                        : 42 м. 39 с.
Вид битрейта                             : Постоянный
Битрейт                                  : 192 Кбит/сек
Каналы                                   : 2 канала
Расположение каналов                     : Front: L R
Частота                                  : 48,0 КГц
Частота кадров                           : 31,250 кадров/сек (1536 spf)
Метод сжатия                             : С потерями
Размер потока                            : 58,6 Мбайт (10%)
Выравнивание                             : Соединение по промежуткам
Продолжительность промежутка             : 240  мс. (6,00 видеокадров)
Время предзагрузки промежутка            : 224  мс.

Общее
Полное имя                               : D:\Mysteries at the Museum_s02\s02e20_Hitchcock's Birds, Hope Diamond, Phineas Gage.avi
Формат                                   : AVI
Формат/Информация                        : Audio Video Interleave
Размер файла                             : 608 Мбайт
Продолжительность                        : 42 м. 31 с.
Общий поток                              : 1998 Кбит/сек
Программа кодирования                    : TMPGEnc Video Mastering Works 5 Version. 5.0.6.38
Библиотека кодирования                   : TMPGEnc Video Mastering Works 5 Version. 5.0.6.38

Видео
Идентификатор                            : 0
Формат                                   : MPEG-4 Visual
Профиль формата                          : Advanced Simple@L5
Параметр BVOP формата                    : 2
Параметр QPel формата                    : Нет
Параметр GMC формата                     : Без точки перехода
Параметр матрицы формата                 : Default (H.263)
Режим смешивания                         : Сжатый битовый поток
Идентификатор кодека                     : XVID
Идентификатор кодека/Подсказка           : XviD
Продолжительность                        : 42 м. 31 с.
Битрейт                                  : 1798 Кбит/сек
Ширина                                   : 704 пикселя
Высота                                   : 400 пикселей
Соотношение сторон                       : 16:9
Частота кадров                           : 25,000 кадров/сек
Цветовое пространство                    : YUV
Субдискретизация насыщенности            : 4:2:0
Битовая глубина                          : 8 бит
Тип развёртки                            : Прогрессивная
Метод сжатия                             : С потерями
Бит/(Пиксели*Кадры)                      : 0.255
Размер потока                            : 547 Мбайт (90%)
Библиотека кодирования                   : XviD 73

Аудио
Идентификатор                            : 1
Формат                                   : AC-3
Формат/Информация                        : Audio Coding 3
Расширение режима                        : CM (complete main)
Параметр Endianness формата              : Big
Идентификатор кодека                     : 2000
Продолжительность                        : 42 м. 31 с.
Вид битрейта                             : Постоянный
Битрейт                                  : 192 Кбит/сек
Каналы                                   : 2 канала
Расположение каналов                     : Front: L R
Частота                                  : 48,0 КГц
Частота кадров                           : 31,250 кадров/сек (1536 spf)
Метод сжатия                             : С потерями
Размер потока                            : 58,4 Мбайт (10%)
Выравнивание                             : Соединение по промежуткам
Продолжительность промежутка             : 240  мс. (6,00 видеокадров)
Время предзагрузки промежутка            : 224  мс.

Общее
Полное имя                               : D:\Mysteries at the Museum_s02\s02e21_Chowchilla Kidnapping_Texas City Disaster_Bezoar Stones.avi
Формат                                   : AVI
Формат/Информация                        : Audio Video Interleave
Размер файла                             : 609 Мбайт
Продолжительность                        : 42 м. 37 с.
Общий поток                              : 1998 Кбит/сек
Программа кодирования                    : TMPGEnc Video Mastering Works 5 Version. 5.0.6.38
Библиотека кодирования                   : TMPGEnc Video Mastering Works 5 Version. 5.0.6.38

Видео
Идентификатор                            : 0
Формат                                   : MPEG-4 Visual
Профиль формата                          : Advanced Simple@L5
Параметр BVOP формата                    : 2
Параметр QPel формата                    : Нет
Параметр GMC формата                     : Без точки перехода
Параметр матрицы формата                 : Default (H.263)
Режим смешивания                         : Сжатый битовый поток
Идентификатор кодека                     : XVID
Идентификатор кодека/Подсказка           : XviD
Продолжительность                        : 42 м. 37 с.
Битрейт                                  : 1799 Кбит/сек
Ширина                                   : 704 пикселя
Высота                                   : 400 пикселей
Соотношение сторон                       : 16:9
Частота кадров                           : 25,000 кадров/сек
Цветовое пространство                    : YUV
Субдискретизация насыщенности            : 4:2:0
Битовая глубина                          : 8 бит
Тип развёртки                            : Прогрессивная
Метод сжатия                             : С потерями
Бит/(Пиксели*Кадры)                      : 0.256
Размер потока                            : 548 Мбайт (90%)
Библиотека кодирования                   : XviD 73

Аудио
Идентификатор                            : 1
Формат                                   : AC-3
Формат/Информация                        : Audio Coding 3
Расширение режима                        : CM (complete main)
Параметр Endianness формата              : Big
Идентификатор кодека                     : 2000
Продолжительность                        : 42 м. 37 с.
Вид битрейта                             : Постоянный
Битрейт                                  : 192 Кбит/сек
Каналы                                   : 2 канала
Расположение каналов                     : Front: L R
Частота                                  : 48,0 КГц
Частота кадров                           : 31,250 кадров/сек (1536 spf)
Метод сжатия                             : С потерями
Размер потока                            : 58,5 Мбайт (10%)
Выравнивание                             : Соединение по промежуткам
Продолжительность промежутка             : 240  мс. (6,00 видеокадров)
Время предзагрузки промежутка            : 224  мс.

Общее
Полное имя                               : D:\Mysteries at the Museum_s02\s02e22_Exorcism_Honey Island Swamp Monster_the Real James Bond_La Belle Shipwreck_Sgt. Stubby.avi
Формат                                   : AVI
Формат/Информация                        : Audio Video Interleave
Размер файла                             : 610 Мбайт
Продолжительность                        : 42 м. 40 с.
Общий поток                              : 1998 Кбит/сек
Программа кодирования                    : TMPGEnc Video Mastering Works 5 Version. 5.0.6.38
Библиотека кодирования                   : TMPGEnc Video Mastering Works 5 Version. 5.0.6.38

Видео
Идентификатор                            : 0
Формат                                   : MPEG-4 Visual
Профиль формата                          : Advanced Simple@L5
Параметр BVOP формата                    : 2
Параметр QPel формата                    : Нет
Параметр GMC формата                     : Без точки перехода
Параметр матрицы формата                 : Default (H.263)
Режим смешивания                         : Сжатый битовый поток
Идентификатор кодека                     : XVID
Идентификатор кодека/Подсказка           : XviD
Продолжительность                        : 42 м. 40 с.
Битрейт                                  : 1798 Кбит/сек
Ширина                                   : 704 пикселя
Высота                                   : 400 пикселей
Соотношение сторон                       : 16:9
Частота кадров                           : 25,000 кадров/сек
Цветовое пространство                    : YUV
Субдискретизация насыщенности            : 4:2:0
Битовая глубина                          : 8 бит
Тип развёртки                            : Прогрессивная
Метод сжатия                             : С потерями
Бит/(Пиксели*Кадры)                      : 0.255
Размер потока                            : 549 Мбайт (90%)
Библиотека кодирования                   : XviD 73

Аудио
Идентификатор                            : 1
Формат                                   : AC-3
Формат/Информация                        : Audio Coding 3
Расширение режима                        : CM (complete main)
Параметр Endianness формата              : Big
Идентификатор кодека                     : 2000
Продолжительность                        : 42 м. 40 с.
Вид битрейта                             : Постоянный
Битрейт                                  : 192 Кбит/сек
Каналы                                   : 2 канала
Расположение каналов                     : Front: L R
Частота                                  : 48,0 КГц
Частота кадров                           : 31,250 кадров/сек (1536 spf)
Метод сжатия                             : С потерями
Размер потока                            : 58,6 Мбайт (10%)
Выравнивание                             : Соединение по промежуткам
Продолжительность промежутка             : 240  мс. (6,00 видеокадров)
Время предзагрузки промежутка            : 224  мс.

Общее
Полное имя                               : D:\Mysteries at the Museum_s02\s02e23_Roulette Computer_LA Shootout_Brooklyn Enigma.avi
Формат                                   : AVI
Формат/Информация                        : Audio Video Interleave
Размер файла                             : 609 Мбайт
Продолжительность                        : 42 м. 37 с.
Общий поток                              : 1998 Кбит/сек
Программа кодирования                    : TMPGEnc Video Mastering Works 5 Version. 5.0.6.38
Библиотека кодирования                   : TMPGEnc Video Mastering Works 5 Version. 5.0.6.38

Видео
Идентификатор                            : 0
Формат                                   : MPEG-4 Visual
Профиль формата                          : Advanced Simple@L5
Параметр BVOP формата                    : 2
Параметр QPel формата                    : Нет
Параметр GMC формата                     : Без точки перехода
Параметр матрицы формата                 : Default (H.263)
Режим смешивания                         : Сжатый битовый поток
Идентификатор кодека                     : XVID
Идентификатор кодека/Подсказка           : XviD
Продолжительность                        : 42 м. 37 с.
Битрейт                                  : 1799 Кбит/сек
Ширина                                   : 704 пикселя
Высота                                   : 400 пикселей
Соотношение сторон                       : 16:9
Частота кадров                           : 25,000 кадров/сек
Цветовое пространство                    : YUV
Субдискретизация насыщенности            : 4:2:0
Битовая глубина                          : 8 бит
Тип развёртки                            : Прогрессивная
Метод сжатия                             : С потерями
Бит/(Пиксели*Кадры)                      : 0.256
Размер потока                            : 548 Мбайт (90%)
Библиотека кодирования                   : XviD 73

Аудио
Идентификатор                            : 1
Формат                                   : AC-3
Формат/Информация                        : Audio Coding 3
Расширение режима                        : CM (complete main)
Параметр Endianness формата              : Big
Идентификатор кодека                     : 2000
Продолжительность                        : 42 м. 37 с.
Вид битрейта                             : Постоянный
Битрейт                                  : 192 Кбит/сек
Каналы                                   : 2 канала
Расположение каналов                     : Front: L R
Частота                                  : 48,0 КГц
Частота кадров                           : 31,250 кадров/сек (1536 spf)
Метод сжатия                             : С потерями
Размер потока                            : 58,5 Мбайт (10%)
Выравнивание                             : Соединение по промежуткам
Продолжительность промежутка             : 240  мс. (6,00 видеокадров)
Время предзагрузки промежутка            : 224  мс.

Общее
Полное имя                               : D:\Mysteries at the Museum_s02\s02e24_Goat Gland Doctor_Legend of the Red Ghost_Easter Island.avi
Формат                                   : AVI
Формат/Информация                        : Audio Video Interleave
Размер файла                             : 610 Мбайт
Продолжительность                        : 42 м. 38 с.
Общий поток                              : 1999 Кбит/сек
Программа кодирования                    : TMPGEnc Video Mastering Works 5 Version. 5.0.6.38
Библиотека кодирования                   : TMPGEnc Video Mastering Works 5 Version. 5.0.6.38

Видео
Идентификатор                            : 0
Формат                                   : MPEG-4 Visual
Профиль формата                          : Advanced Simple@L5
Параметр BVOP формата                    : 2
Параметр QPel формата                    : Нет
Параметр GMC формата                     : Без точки перехода
Параметр матрицы формата                 : Default (H.263)
Режим смешивания                         : Сжатый битовый поток
Идентификатор кодека                     : XVID
Идентификатор кодека/Подсказка           : XviD
Продолжительность                        : 42 м. 38 с.
Битрейт                                  : 1800 Кбит/сек
Ширина                                   : 704 пикселя
Высота                                   : 400 пикселей
Соотношение сторон                       : 16:9
Частота кадров                           : 25,000 кадров/сек
Цветовое пространство                    : YUV
Субдискретизация насыщенности            : 4:2:0
Битовая глубина                          : 8 бит
Тип развёртки                            : Прогрессивная
Метод сжатия                             : С потерями
Бит/(Пиксели*Кадры)                      : 0.256
Размер потока                            : 549 Мбайт (90%)
Библиотека кодирования                   : XviD 73

Аудио
Идентификатор                            : 1
Формат                                   : AC-3
Формат/Информация                        : Audio Coding 3
Расширение режима                        : CM (complete main)
Параметр Endianness формата              : Big
Идентификатор кодека                     : 2000
Продолжительность                        : 42 м. 38 с.
Вид битрейта                             : Постоянный
Битрейт                                  : 192 Кбит/сек
Каналы                                   : 2 канала
Расположение каналов                     : Front: L R
Частота                                  : 48,0 КГц
Частота кадров                           : 31,250 кадров/сек (1536 spf)
Метод сжатия                             : С потерями
Размер потока                            : 58,6 Мбайт (10%)
Выравнивание                             : Соединение по промежуткам
Продолжительность промежутка             : 240  мс. (6,00 видеокадров)
Время предзагрузки промежутка            : 224  мс.

Общее
Полное имя                               : D:\Mysteries at the Museum_s02\Thumbs.db
Размер файла                             : 6,00 Кбайт
01. Siamese Twins, Assassin Umbrella, Capone's Haunted Cell
В этой серии рассказывается о посмертном слепке сиамских близнецов Чанга и Энга в Музее медицинской истории Мюттера в Филадельфии, а также о небольшом черном зонте в Международном музее шпионажа.
02. Annabelle Doll, Bridge Collapse, Whale Attack
В этой серии рассказывается о тряпичной кукле по имени Аннабель в Оккультном музее Уорренов. Кураторы музея считают, что смерть одного из посетителей связана с этим экспонатом.
03. Prison Experiment, Butch Cassidy Manuscript, Dueling Mammoths
В этой серии рассказывается об обычной униформе цвета хаки, которая является экспонатом в Университете Акрона, которая сыграла ключевую роль в проведении самых противоречивых экспериментов.
04. French Connection, Shipwrecked Gold, Area 51 Plane Crash
В этой серии рассказывается о полицейском досье, состоящим из черных и белых фотографий, которые помогли в поимке влиятельного торговца наркотиками
05. S.S. Eastland Disaster, Lost Gold Mine, Smuttynose Murders
В этой серии рассказывается о спасательном жилете корабля «Eastland», а также о четырех камнях, на которых выгравированы символы, которые, возможно, являются картой места нахождения золотого рудника
06. American Spy, Belle Gunness, Oarfish
В этой серии рассказывается о почтовом ящике, который связан с самым громким делом о шпионаже во время Холодной войны
07. Shrunken Heads, Greeley Expedition, Broken Arrow
В этой серии Дон Уайлдман исследует миниатюрную человеческую голову, которая попала в музей из джунглей Южной Америки.
08. La Raid, Bioterror, Automation
В этой серии рассказывается о мраморной статуе девушки, которая когда-то считалась самой красивой женщиной штата.
09. Outlaw Shoes, Astrochimp, Message in a Bottle
В этой серии рассказывается о паре мужских ботинок, и о том, какую роль они сыграли в одном из самых страшных дел в истории Дикого Запада.
10. Anthrax, Marilyn Monroe, Hunley Submarine
В этой серии рассказывается об обычно картонной коробке, содержимое которой когда-то сковало страхом всю страну. Что же находилось в этой коробке?
11. Lotto Scam, Somali Pirates, Haunted Plane
В Музее полиции штата Пенсильвания находится лотерейный билет с номером 666. Какую роль сыграл этот билет в одном из розыгрышей?
12. Flying Car, Prison Riot, Dreamland Fire
В этой серии Дон Уайлдман исследует автомобиль, который был спроектирован для полетов. Он также расскажет о пиле, которая была трансформирована в орудие убийства.
13. Brinks Heist, Saddam's Spider Hole, Rindocus
В этой серии рассказывается о кепке шофера, которая хранится в штаб-квартире ФБР в Вашингтоне. Она была оставлена на месте одного из самых громких преступлений в истории США.
14. The Donner Party, the Shoe Bomber, FDR'S Cane
В архивах Музея естественной истории Сан Диего находится коллекция из 52 птиц, которые стали жертвами загадочной эпидемии. Что стало причиной их смерти?
15. Boston Molasses Disaster, D.B. Cooper, Buddy Holly
В этой серии. Рядом с Бостонским музеем пожарной охраны припаркован уникальный пожарный расчет, который использовался во время пожара, к которому не был готов ни один пожарный.
16. Einstein's Brain, Morgan Affair, Brass Knuckles
В этой серии рассказывается об эскизах, на которых изображены ужасающие существа из потустороннего мира, а также о примитивном оружии - кастете.
17. Keely's Motor, Reagan Limousine, Audubon's Mystery Book
В этой серии рассказывается о небольшом негативе, а также об уникальном лимузине Линкольн Континенталь.
18. Lost Colony of Roanoke, Linda Hazzard, Deep Blue
В этой серии рассказывается о локоне волос, который принадлежал одному из самых известных американских писателей - Эдгару Аллану По.
19. Black Dahlia, French Angel, Sterling Hall Bombing
В этой серии рассказывается о таинственной коробке, которая содержит ключ к тайнам печально известного убийства Черной орхидеи.
20. Hitchcock's Birds, Hope Diamond, Phineas Gage
В этой серии рассказывается о странных морских существах, которые, возможно, смогут помочь разгадать загадку, связанную с Альфредом Хичкоком.
21. Chowchilla Kidnapping, Texas City Disaster, Bezoar Stones
В этой серии Дон Уайлдман расскажет о желтом школьном автобусе, который оказался в центре ужаснейшего преступления.
22. Exorcism, Honey Island Swamp Monster, the Real James Bond, La Belle Shipwreck, Sgt. Stubby
В этой серии рассказывается о вакцине, которая стала самым большим прорывом в медицине в 20 веке.
23. Roulette Computer, LA Shootout, Brooklyn Enigma
В этой серии рассказывается о небольшой пластиковой коробке, наполненной электронными компонентами, она использовалась для обмана в казино в Лас-Вегасе.
24. Goat Gland Doctor, Legend of the Red Ghost, Easter Island
В этой серии рассказывается об изношенной униформе военно-морского флота, которая принадлежала врачу, который использовал половые органы козлов для проведения операций.

Скриншоты:




Время раздачи: Пн-Пт с 16:00 до 20:00, Сб-Вс с 09:00 до 20:30 (до появления первых 3-5 скачавших)
 
Не забывайте говорить Спасибо. Не уходите с раздачи!   
Торрент: Зарегистрирован [07 окт 2016, 14:41] Для скачивания .torrent
необходима регистрация
Или скачать с помощью
MediaGet
Статус:
Проверен
 
.torrent скачан: 0 раз
Хэш: 819be8c999e93a68fb0918d9f5544cf4f7ea7ab9
Размер: 14.28 ГБ (15 330 379 202 байт)
Стать Автором раздачи
 
 
Раздал: 100 ГБ
Скачал: 0 байт
Ратио: Seed.
Сообщения: 100282
Зарегистрирован: 09 апр 2015, 22:31


  • Похожие торренты
    Ответы
    Просмотры
    Последнее сообщение

Вернуться в Интересно обо всем

Ресурс не предоставляет электронные версии произведений, а занимается лишь коллекционированием и каталогизацией ссылок, присылаемых и публикуемых на форуме нашими читателями. Если вы являетесь правообладателем какого-либо представленного материала и не желаете чтобы ссылка на него находилась в нашем каталоге, свяжитесь с нами и мы незамедлительно удалим её. Файлы для обмена на трекере предоставлены пользователями сайта, и администрация не несёт ответственности за их содержание. Просьба не заливать файлы, защищенные авторскими правами, а также файлы нелегального содержания!
cron