Новости с планеты Марс / Des nouvelles de la planète Mars (2016) WEB-DLRip [H.264] [MP4|1024x428]

 
 Статистика раздачи 
Размер: 1.51 ГБ   |  Зарегистрирован: 07 окт 2016, 10:27   |   .torrent скачан: 0 раз
Сидеров: 1  [ 0 байт/сек ]     Личеров: 0  [ 0 байт/сек ]  
  

Новости с планеты Марс / Des nouvelles de la planète Mars (2016) WEB-DLRip [H.264] [MP4|1024x428]

Сообщение explosiveone » 07 окт 2016, 10:27

Новости с планеты Марс / Des nouvelles de la planète Mars (2016) WEB-DLRip

«Для тех, кто в скафандре»

Производство: Франция, Бельгия / Diaphana Films, Artémis Productions, France 3 Cinéma
Жанр: Комедия

Режиссер: Доминик Молль
Актеры: Франсуа Дамиенс, Венсан Макен, Верле Батенс, Жанн Гитте, Том Ривуар, Мишель Омон, Катрин Сами, Филипп Лоденбаш, Оливия Коте, Леа Дрюкер

Описание:
Филипп Марс работает айтишником, мечтает о космосе, и его все достали! Дети считают лузером, сестра — занудой, и даже призраки умерших родителей подшучивают над ним. Все меняется с появлением смешного и немного опасного коллеги Жерома. Вместе со своей пассией, сбежавшей из психиатрической клиники, они перевернут дом и жизнь Филиппа с ног на голову, заразят его романтичным бредом и заставят впервые в жизни совершить настоящий поступок — похлеще полета на Марс.


Возраст: 16+ (зрителям, достигшим 16 лет)

Продолжительность: 01:41:06
Качество видео: WEB-DLRip
Перевод: Дублированный - (iTunes)
Вид субтитров: Отсутствуют
Реклама: Без рекламы

Видео: AVC/H.264 (Main@L3.1), 1024x428 (2.40:1), 2000 Кбит/сек
Аудио #1: AAC, 2 канал, 128 Кбит/сек - русский
Код:
Код: Выделить всё
General
Complete name                            : C:\CREATE\264mod1\out\1\Des nouvelles de la planete Mars.2016.576p.WEB-DLRip.x264.NNMclub.mp4
Format                                   : MPEG-4
Format profile                           : Base Media / Version 2
Codec ID                                 : mp42 (mp42/isom)
File size                                : 1.51 GiB
Duration                                 : 1h 41mn
Overall bit rate mode                    : Variable
Overall bit rate                         : 2 134 Kbps
Movie name                               : Des nouvelles de la planète Mars
Performer                                : Dominik Moll
Director                                 : Dominik Moll
Genre                                    : Comédie
ContentType                              : Short Film
Description                              : Philippe Mars, ingénieur informaticien divorcé, essaye tant bien que mal de mener une vie tranquille
Recorded date                            : 2016-03-09
Encoded date                             : UTC 2016-10-03 17:59:58
Tagged date                              : UTC 2016-10-03 18:34:09
Cover                                    : Yes
Rating                                   : None
LongDescription                          : Philippe Mars, ingénieur informaticien divorcé, essaye tant bien que mal de mener une vie tranquille, entre un fils collégien devenu subitement végétarien, une fille lycéenne obsédée par la réussite, une sœur artiste peintre aux œuvres terriblement impudiques et une ex-femme qui bosse à la télé... L’irruption accidentelle de Jérôme, un collègue légèrement perturbé, achève de transformer son existence en chaos. Mais dans un monde qui a perdu la raison, la folie est-elle vraiment si mauvaise conseillère ?
AppleStoreCountry                        : France
AppleStoreCatalogID                      : 1131050871
ContentRating                            : fr-movie|Tout public|000|

Video
ID                                       : 1
Format                                   : AVC
Format/Info                              : Advanced Video Codec
Format profile                           :
Format settings, CABAC                   : No
Format settings, ReFrames                : 3 frames
Codec ID                                 : avc1
Codec ID/Info                            : Advanced Video Coding
Duration                                 : 1h 41mn
Bit rate                                 : 2 000 Kbps
Width                                    : 1 024 pixels
Height                                   : 428 pixels
Display aspect ratio                     : 2.40:1
Frame rate mode                          : Variable
Frame rate                               : 24.000 fps
Minimum frame rate                       : 23.810 fps
Maximum frame rate                       : 24.390 fps
Color space                              : YUV
Chroma subsampling                       : 4:2:0
Bit depth                                : 8 bits
Scan type                                : Progressive
Bits/(Pixel*Frame)                       : 0.190
Stream size                              : 1.41 GiB (94%)
Writing library                          : x264 core 148 r2721+55 e19946b t_mod_Custom [8-bit@all X86]
Encoding settings                        : cabac=0 / ref=3 / deblock=1:0:0 / analyse=0x1:0x111 / me=umh / subme=7 / psy=1 / fade_compensate=0.00 / psy_rd=1.00:0.00 / mixed_ref=1 / me_range=32 / chroma_me=1 / trellis=2 / 8x8dct=0 / cqm=0 / deadzone=21,11 / fast_pskip=0 / chroma_qp_offset=-2 / threads=12 / lookahead_threads=2 / sliced_threads=0 / nr=0 / decimate=0 / interlaced=0 / bluray_compat=0 / constrained_intra=0 / fgo=0 / bframes=3 / b_pyramid=1 / b_adapt=2 / b_bias=0 / direct=3 / weightb=1 / open_gop=0 / weightp=2 / keyint=240 / keyint_min=24 / scenecut=40 / intra_refresh=0 / rc_lookahead=50 / rc=2pass / mbtree=1 / bitrate=2000 / ratetol=1.0 / qcomp=0.60 / qpmin=0:0:0 / qpmax=69:69:69 / qpstep=4 / cplxblur=20.0 / qblur=0.5 / vbv_maxrate=14000 / vbv_bufsize=14000 / nal_hrd=none / filler=0 / ip_ratio=1.40 / aq=3:1.00 / aq-sensitivity=10.00 / aq-factor=1.00:1.00:1.00 / aq2=1:0.90 / aq2-sensitivity=15.00 / aq2-factor=1.00:1.00:1.00 / aq3=3:[0.50:0.50]:[0.50:0.50]:[0.50:0.50]:[0.50:0.50] / aq3-sensitivity=10.00 / aq3-factor=[1.00:1.00]:[1.00:1.00]:[1.00:1.00] / aq3-boundary=192:64:24
Encoded date                             : UTC 2016-10-03 17:59:58
Tagged date                              : UTC 2016-10-03 18:04:57
Color range                              : Limited
Matrix coefficients                      : BT.709
Menus                                    : 4

Audio
ID                                       : 3
Format                                   : AAC
Format/Info                              : Advanced Audio Codec
Format profile                           : LC
Codec ID                                 : 40
Duration                                 : 1h 41mn
Source duration                          : 1h 41mn
Bit rate mode                            : Variable
Bit rate                                 : 128 Kbps
Maximum bit rate                         : 131 Kbps
Channel(s)                               : 2 channels
Channel positions                        : Front: L R
Sampling rate                            : 48.0 KHz
Frame rate                               : 46.875 fps (1024 spf)
Compression mode                         : Lossy
Stream size                              : 92.6 MiB (6%)
Source stream size                       : 92.6 MiB (6%)
Language                                 : Russian
Default                                  : Yes
Alternate group                          : 1
Encoded date                             : UTC 2016-10-03 17:59:58
Tagged date                              : UTC 2016-10-03 18:04:57

Menu
ID                                       : 4
Codec ID                                 : text
Duration                                 : 1h 41mn
Language                                 : English
Encoded date                             : UTC 2016-10-03 18:04:57
Tagged date                              : UTC 2016-10-03 18:04:57
Bit rate mode                            : CBR
Menu For                                 : 1
Duration_LastFrame                       : -1133626
00:00:00.000                             : Chapter 1
00:20:00.000                             : Chapter 2
00:40:00.000                             : Chapter 3
01:00:00.000                             : Chapter 4
01:20:00.000                             : Chapter 5
01:40:00.000                             : Chapter 6

Скриншоты:


Время раздачи: 24/7 (круглосуточно) (до появления первых 3-5 скачавших)
 
Не забывайте говорить Спасибо. Не уходите с раздачи!   
Торрент: Зарегистрирован [07 окт 2016, 10:27] Для скачивания .torrent
необходима регистрация
Или скачать с помощью
MediaGet
Статус:
Проверен
 
.torrent скачан: 0 раз
Хэш: f986873990228b88c6d1debaacb22e68a999846f
Размер: 1.51 ГБ (1 618 507 056 байт)
Стать Автором раздачи
 
 
Раздал: 100 ГБ
Скачал: 0 байт
Ратио: Seed.
Сообщения: 94049
Зарегистрирован: 09 апр 2015, 22:31


  • Похожие торренты
    Ответы
    Просмотры
    Последнее сообщение

Вернуться в Видео для мобильных устройств

Ресурс не предоставляет электронные версии произведений, а занимается лишь коллекционированием и каталогизацией ссылок, присылаемых и публикуемых на форуме нашими читателями. Если вы являетесь правообладателем какого-либо представленного материала и не желаете чтобы ссылка на него находилась в нашем каталоге, свяжитесь с нами и мы незамедлительно удалим её. Файлы для обмена на трекере предоставлены пользователями сайта, и администрация не несёт ответственности за их содержание. Просьба не заливать файлы, защищенные авторскими правами, а также файлы нелегального содержания!
cron