Robbie Williams - Party Like A Russian (2016) WEB-DL [MPEG-4/1080p-LQ]

 
 Статистика раздачи 
Размер: 422.46 МБ   |  Зарегистрирован: 03 окт 2016, 18:51   |   .torrent скачан: 1 раз
Сидеров: 1  [ 0 байт/сек ]     Личеров: 0  [ 0 байт/сек ]  
  

Robbie Williams - Party Like A Russian (2016) WEB-DL [MPEG-4/1080p-LQ]

Сообщение explosiveone » 03 окт 2016, 18:51

Robbie Williams - Party Like A Russian (2016) WEB-DL [MPEG-4/1080p-LQ]

Год выпуска: 2016
Страна: Великобритания
Исполнитель: Робби Уильямс
Жанр: Pop, Dance, Britpop

Описание:
Британский певец Робби Уильямс объяснил, почему песня Party Like A Russian из его нового альбома посвящена русской гулянке.
«Частью британского самовосприятия является поголовная вера в то, что мы самые лучшие в веселье, да и многие страны думают так о себе. Но не существует такой вечеринки, как русская вечеринка», — говорится в ответе Уильямса.
30 сентября певец опубликовал в Facebook клип на песню Party Like A Russian («Веселись, как русский»). В ролике он танцует с балеринами в интерьерах роскошного особняка. Исполнитель поет о богатом русском, который приуменьшает благосостояние нации, строит собственную космическую станцию и никогда не улыбается.
После выхода сингла Уильямс признался, что теперь будет избегать поездок в восточноевропейские страны.

Релиз от: karfagen1975
Продолжительность: 00:03:08
Качество видео: WEB-DL 1080p

Видео: MPEG4, DivX 4, 1920x1080 (16:9), 25.000 fps, 18.2 Mbps (0.351 bit/pixel)
Аудио: MP3, 44.1 KHz, 2 ch, 256 Kbps, CBR (English)
Код:
Код: Выделить всё
General
Unique ID                   : 241674859682694195753238266879900168287 (0xB5D0E2894155FF129399307C3934B05F)
Complete name               Robbie.Williams.Party.Like.A.Russian.2016.WEB-DL.1080p.NNMCLUB.mkv
Format                      : Matroska
Format version              : Version 4 / Version 2
File size                   : 422 MiB
Duration                    : 3 min
Overall bit rate            : 18.8 Mb/s
Encoded date                : UTC 2016-10-03 13:51:23
Writing application         : mkvmerge v9.4.2 ('So High') 64bit
Writing library             : libebml v1.3.4 + libmatroska v1.4.5

Video
ID                          : 1
Format                      : MPEG-4 Visual
Format profile              : Simple@L1
Format settings, BVOP       : No
Format settings, QPel       : No
Format settings, GMC        : No warppoints
Format settings, Matrix     : Default (H.263)
Codec ID                    : V_MS/VFW/FOURCC / DIVX
Codec ID/Hint               : DivX 4
Duration                    : 3 min
Bit rate                    : 18.6 Mb/s
Width                       : 1 920 pixels
Height                      : 1 080 pixels
Display aspect ratio        : 16:9
Frame rate mode             : Constant
Frame rate                  : 25.000 FPS
Color space                 : YUV
Chroma subsampling          : 4:2:0
Bit depth                   : 8 bits
Scan type                   : Progressive
Compression mode            : Lossy
Bits/(Pixel*Frame)          : 0.358
Stream size                 : 417 MiB (99%)
Writing library             : Lavc54.23.100
Language                    : English
Default                     : Yes
Forced                      : No

Audio
ID                          : 2
Format                      : MPEG Audio
Format version              : Version 1
Format profile              : Layer 3
Mode                        : Joint stereo
Codec ID                    : A_MPEG/L3
Codec ID/Hint               : MP3
Duration                    : 3 min
Bit rate mode               : Constant
Bit rate                    : 256 kb/s
Channel(s)                  : 2 channels
Sampling rate               : 44.1 kHz
Frame rate                  : 38.281 FPS (1152 spf)
Compression mode            : Lossy
Stream size                 : 5.75 MiB (1%)
Writing library             : LAME3.99.5
Language                    : English
Default                     : Yes
Forced                      : No

Скриншоты:



Время раздачи: 24/7 (круглосуточно) (до появления первых 3-5 скачавших)
 
Не забывайте говорить Спасибо. Не уходите с раздачи!   
Торрент: Зарегистрирован [03 окт 2016, 18:51] Скачать торрент
Скачать торрент
[ Размер 17.22 КБ / Просмотров 19 ]
Статус:
Проверен
 
.torrent скачан: 1 раз
Хэш: 1c51827da30455500910c67d230ddadf03b92bca
Размер: 422.46 МБ (442 977 534 байт)
Стать Автором раздачи
 
 
Раздал: 100 ГБ
Скачал: 0 байт
Ратио: Seed.
Сообщения: 108845
Зарегистрирован: 09 апр 2015, 22:31


  • Похожие торренты
    Ответы
    Просмотры
    Последнее сообщение

Вернуться в Музыкальные клипы (транзит)

Ресурс не предоставляет электронные версии произведений, а занимается лишь коллекционированием и каталогизацией ссылок, присылаемых и публикуемых на форуме нашими читателями. Если вы являетесь правообладателем какого-либо представленного материала и не желаете чтобы ссылка на него находилась в нашем каталоге, свяжитесь с нами и мы незамедлительно удалим её. Файлы для обмена на трекере предоставлены пользователями сайта, и администрация не несёт ответственности за их содержание. Просьба не заливать файлы, защищенные авторскими правами, а также файлы нелегального содержания!
cron