Сеть / The Net (1995) HDRip [H.264] [MP4|1024x556]

 
 Статистика раздачи 
Размер: 1.7 ГБ   |  Зарегистрирован: 03 окт 2016, 18:48   |   .torrent скачан: 0 раз
Сидеров: 1  [ 0 байт/сек ]     Личеров: 0  [ 0 байт/сек ]  
  

Сеть / The Net (1995) HDRip [H.264] [MP4|1024x556]

Сообщение explosiveone » 03 окт 2016, 18:49

Сеть / The Net (1995) HDRip

«Escape is impossible when you're caught in the net»

Производство: США / Columbia Pictures Corporation, Winkler Films
Жанр: Триллер, Детектив, Боевик, Драма, Криминал

Режиссер: Ирвин Уинклер
Актеры: Сандра Буллок, Джереми Нортэм, Деннис Миллер, Дайан Бэйкер, Венди Газелль, Кен Ховард, Рэй МакКиннон, Дэниэл Шорр, Л. Скотт Колдуэлл, Роберт Госсетт

Описание:
Как и все мы, Анжела Беннет живет в век информации. Все аспекты ее существования переведены в цифры и занесены в различные компьютерные базы данных: личный идентификационный номер, номер банковского счета, номер страхового свидетельства, номер водительского удостоверения, сведения об отсутствии судимости. Работа Анжелы тоже связана с компьютерами — она программист. Существование Анжелы Беннет полностью компьютеризованно. Она не придает этому значения, но однажды ее личность стирают! Гуляя по компьютерной сети, Анжела случайно перебегает дорогу преторианцам. Преторианцами называют себя члены организованной группы хакеров, на счету которых взломы правительственных систем безопасности, биржевые крахи, авиакатастрофы и убийства, совершенные с использованием только одного оружия — всемирной сети интернет. Анжела становится следующей жертвой в списке хакеров. Они стирают ее личность и вписывают в биографию Анжелы новое имя и преступное прошлое. Согласно сфабрикованным данным, Анжела — опасная преступница, которая находится в розыске. Она должна найти в себе силы побороть злых компьютерных гениев.


Возраст: 16+ (зрителям, достигшим 16 лет)
Рейтинг MPAA: PG-13 (детям до 13 лет просмотр нежелателен)

Продолжительность: 01:54:18
Качество видео: HDRip
Перевод: Дублированный
Вид субтитров: Вшитые отключаемые
Язык субтитров: Русский
Реклама: Без рекламы

Видео: AVC/H.264 (Main@L3.1), 1024x556 (1.85:1), 2000 Кбит/сек
Аудио #1: AAC, 2 канал, 128 Кбит/сек - русский (дублированный)
Код:
Код: Выделить всё
General
Complete name                            : C:\CREATE\264mod1\out\1\The Net.1995.576p.HDRip.AAC.x264.mp4
Format                                   : MPEG-4
Format profile                           : Base Media / Version 2
Codec ID                                 : mp42 (mp42/isom)
File size                                : 1.70 GiB
Duration                                 : 1h 54mn
Overall bit rate mode                    : Variable
Overall bit rate                         : 2 134 Kbps
Movie name                               : The Net
Performer                                : Irwin Winkler
Director                                 : Irwin Winkler
Actor                                    : Sandra Bullock / Dennis Miller / Jeremy Northam
Screenplay by                            : Irwin Winkler / Rob Cowan
Producer                                 : Boris Malden
Genre                                    : Thriller
ContentType                              : Short Film
Description                              : Sandra Bullock, Dennis Miller and Jeremy Northam star in this hit thriller about a computer expert whose life is "erased" by a computer conspiracy. A freelance software analyst, Angela Bennett, is inadvertently drawn into a dangerous conspiracy when a client asks her to de-bug a CD-ROM game. Soon the client turns up dead and Angela is next on the hit-list. After the assassins obliterate her official identity, Angela realizes hers is not the only life being destroyed on the Net. Like the best Hitchcock, THE NET builds tension to unbearable heights until "this edge of your seat nail-biter explodes with suspense. Sandra Bullock is sensational." (Jeanne Wolf, Jeanne Wolf's Hollywood)
Recorded date                            : 2001-03-06
Encoded date                             : UTC 2016-10-03 06:31:25
Tagged date                              : UTC 2016-10-03 06:37:49
Copyright                                : © 1995 Columbia Pictures Industries, Inc
Cover                                    : Yes
Rating                                   : None
LongDescription                          : Sandra Bullock, Dennis Miller and Jeremy Northam star in this hit thriller about a computer expert whose life is "erased" by a computer conspiracy. A freelance software analyst, Angela Bennett, is inadvertently drawn into a dangerous conspiracy when a client asks her to de-bug a CD-ROM game. Soon the client turns up dead and Angela is next on the hit-list. After the assassins obliterate her official identity, Angela realizes hers is not the only life being destroyed on the Net. Like the best Hitchcock, THE NET builds tension to unbearable heights until "this edge of your seat nail-biter explodes with suspense. Sandra Bullock is sensational." (Jeanne Wolf, Jeanne Wolf's Hollywood)
AppleStoreCountry                        : United States
AppleStoreCatalogID                      : 263455177
ContentRating                            : mpaa|PG-13|300|

Video
ID                                       : 1
Format                                   : AVC
Format/Info                              : Advanced Video Codec
Format profile                           :
Format settings, CABAC                   : No
Format settings, ReFrames                : 3 frames
Codec ID                                 : avc1
Codec ID/Info                            : Advanced Video Coding
Duration                                 : 1h 54mn
Bit rate                                 : 2 000 Kbps
Width                                    : 1 024 pixels
Height                                   : 556 pixels
Display aspect ratio                     : 1.85:1
Frame rate mode                          : Variable
Frame rate                               : 23.976 (24000/1001) fps
Minimum frame rate                       : 23.810 fps
Maximum frame rate                       : 24.390 fps
Color space                              : YUV
Chroma subsampling                       : 4:2:0
Bit depth                                : 8 bits
Scan type                                : Progressive
Bits/(Pixel*Frame)                       : 0.147
Stream size                              : 1.60 GiB (94%)
Writing library                          : x264 core 148 r2721+55 e19946b t_mod_Custom [8-bit@all X86]
Encoding settings                        : cabac=0 / ref=3 / deblock=1:0:0 / analyse=0x1:0x111 / me=umh / subme=7 / psy=1 / fade_compensate=0.00 / psy_rd=1.00:0.00 / mixed_ref=1 / me_range=32 / chroma_me=1 / trellis=2 / 8x8dct=0 / cqm=0 / deadzone=21,11 / fast_pskip=0 / chroma_qp_offset=-2 / threads=12 / lookahead_threads=2 / sliced_threads=0 / nr=0 / decimate=0 / interlaced=0 / bluray_compat=0 / constrained_intra=0 / fgo=0 / bframes=3 / b_pyramid=1 / b_adapt=2 / b_bias=0 / direct=3 / weightb=1 / open_gop=0 / weightp=2 / keyint=240 / keyint_min=23 / scenecut=40 / intra_refresh=0 / rc_lookahead=50 / rc=2pass / mbtree=1 / bitrate=2000 / ratetol=1.0 / qcomp=0.60 / qpmin=0:0:0 / qpmax=69:69:69 / qpstep=4 / cplxblur=20.0 / qblur=0.5 / vbv_maxrate=14000 / vbv_bufsize=14000 / nal_hrd=none / filler=0 / ip_ratio=1.40 / aq=3:1.00 / aq-sensitivity=10.00 / aq-factor=1.00:1.00:1.00 / aq2=1:0.90 / aq2-sensitivity=15.00 / aq2-factor=1.00:1.00:1.00 / aq3=3:[0.50:0.50]:[0.50:0.50]:[0.50:0.50]:[0.50:0.50] / aq3-sensitivity=10.00 / aq3-factor=[1.00:1.00]:[1.00:1.00]:[1.00:1.00] / aq3-boundary=192:64:24
Encoded date                             : UTC 2016-10-03 06:31:25
Tagged date                              : UTC 2016-10-03 06:36:03
Color range                              : Limited
Matrix coefficients                      : BT.709

Audio
ID                                       : 2
Format                                   : AAC
Format/Info                              : Advanced Audio Codec
Format profile                           : LC
Codec ID                                 : 40
Duration                                 : 1h 54mn
Source duration                          : 1h 54mn
Bit rate mode                            : Variable
Bit rate                                 : 128 Kbps
Maximum bit rate                         : 132 Kbps
Channel(s)                               : 2 channels
Channel positions                        : Front: L R
Sampling rate                            : 48.0 KHz
Frame rate                               : 46.875 fps (1024 spf)
Compression mode                         : Lossy
Stream size                              : 105 MiB (6%)
Source stream size                       : 105 MiB (6%)
Language                                 : Russian
Default                                  : Yes
Alternate group                          : 1
Encoded date                             : UTC 2016-10-03 06:31:25
Tagged date                              : UTC 2016-10-03 06:36:03

Text
ID                                       : 3
Format                                   : Timed Text
Muxing mode                              : sbtl
Codec ID                                 : tx3g
Duration                                 : 1h 50mn
Bit rate mode                            : Variable
Bit rate                                 : 69 bps
Stream size                              : 56.1 KiB (0%)
Language                                 : Russian
Default                                  : Yes
Forced                                   : No
Alternate group                          : 2
Encoded date                             : UTC 2016-10-03 06:31:25
Tagged date                              : UTC 2016-10-03 06:36:03

Скриншоты:


Время раздачи: 24/7 (круглосуточно) (до появления первых 3-5 скачавших)
 
Не забывайте говорить Спасибо. Не уходите с раздачи!   
Торрент: Зарегистрирован [03 окт 2016, 18:48] Для скачивания .torrent
необходима регистрация
Или скачать с помощью
MediaGet
Статус:
Проверен
 
.torrent скачан: 0 раз
Хэш: 0b5428eadeed345d02038e288147ba2c883fda88
Размер: 1.7 ГБ (1 829 416 778 байт)
Стать Автором раздачи
 
 
Раздал: 100 ГБ
Скачал: 0 байт
Ратио: Seed.
Сообщения: 94068
Зарегистрирован: 09 апр 2015, 22:31


  • Похожие торренты
    Ответы
    Просмотры
    Последнее сообщение

Вернуться в Видео для мобильных устройств

Ресурс не предоставляет электронные версии произведений, а занимается лишь коллекционированием и каталогизацией ссылок, присылаемых и публикуемых на форуме нашими читателями. Если вы являетесь правообладателем какого-либо представленного материала и не желаете чтобы ссылка на него находилась в нашем каталоге, свяжитесь с нами и мы незамедлительно удалим её. Файлы для обмена на трекере предоставлены пользователями сайта, и администрация не несёт ответственности за их содержание. Просьба не заливать файлы, защищенные авторскими правами, а также файлы нелегального содержания!
cron