Охота на дикарей / Hunt for the Wilderpeople (2016) HDRip [H.264] [MP4|1024x430]

 
 Статистика раздачи 
Размер: 1.55 ГБ   |  Зарегистрирован: 03 окт 2016, 18:48   |   .torrent скачан: 0 раз
Сидеров: 1  [ 0 байт/сек ]     Личеров: 0  [ 0 байт/сек ]  
  

Охота на дикарей / Hunt for the Wilderpeople (2016) HDRip [H.264] [MP4|1024x430]

Сообщение explosiveone » 03 окт 2016, 18:48

Охота на дикарей / Hunt for the Wilderpeople (2016) HDRip

«Nature just got gangster»

Производство: Новая Зеландия / Piki Films, Defender Films, Curious Film
Жанр: Драма, Комедия, Приключения

Режиссер: Тайка Вайтити
Актеры: Сэм Нил, Джулиан Деннисон, Рима Те Вьята, Рэйчел Хаус, Tioreore Ngatai-Melbourne, Оскар Кайтли, Стэн Уокер, Майк Миноуг, Коэн Холлоуэй, Риз Дэрби

Описание:
Рикки Бэйкер — упитанный городской хулиган. Сотрудница социальной службы Пола отвозит подростка в сельскую местность, где живёт единственная готовая принять его семья — Белла и её нелюдимый муж Гек. Когда Белла умирает и социальная защита собирается забрать Рикки, тот убегает в леса. Гек отправляется за ним. Сумасбродная Пола убеждена, что странный Гек слетел с катушек из-за смерти жены и похитил подростка. Она развязывает общенациональную охоту на мальчика и его «совратителя».


Рейтинг MPAA: PG-13 (детям до 13 лет просмотр нежелателен)

Продолжительность: 01:41:24
Качество видео: HDRip
Перевод: Двуголосый закадровый - (RecentFilms)
Вид субтитров: Отсутствуют
Реклама: присутствуют аудио и видео вставки рекламы.

Видео: AVC/H.264 (Main@L3.1), 1024x430 (2.39:1), 2050 Кбит/сек
Аудио #1: AAC, 2 канал, 128 Кбит/сек - русский (двуголосый закадровый)
Код:
Код: Выделить всё
General
Complete name                            : C:\DGI\Hunt.for.the.Wilderpeople.2016.576p.HDRip.x264.NNMclub.mp4
Format                                   : MPEG-4
Format profile                           : Base Media / Version 2
Codec ID                                 : mp42 (mp42/isom)
File size                                : 1.55 GiB
Duration                                 : 1h 41mn
Overall bit rate mode                    : Variable
Overall bit rate                         : 2 184 Kbps
Movie name                               : Hunt for the Wilderpeople
Performer                                : Taika Waititi
Director                                 : Taika Waititi
Actor                                    : Sam Neill / Julian Dennison / Rhys Darby / Rima Te Wiata / Rachel House
Producer                                 : Taika Waititi / Carthew Neal / Leanne Saunders / Matt Noonan
Genre                                    : Comedy
ContentType                              : Short Film
Description                              : Raised on hip-hop and foster care, defiant city kid Ricky gets a fresh start in the New Zealand
Recorded date                            : 2016-06-24
Encoded date                             : UTC 2016-10-02 19:12:09
Tagged date                              : UTC 2016-10-02 19:20:33
Copyright                                : © 2016 Majestical Pictures Limited
Cover                                    : Yes
Rating                                   : None
LongDescription                          : Raised on hip-hop and foster care, defiant city kid Ricky gets a fresh start in the New Zealand countryside. He quickly finds himself at home with his new foster family: the loving Aunt Bella, the cantankerous Uncle Hec, and dog Tupac. When a tragedy strikes that threatens to ship Ricky to another home, both he and Hec go on the run in the bush. As a national manhunt ensues, the newly branded outlaws must face their options: go out in a blaze of glory or overcome their differences and survive as a family.  Equal parts road comedy and rousing adventure story, director Taika Waititi (WHAT WE DO IN THE SHADOWS, upcoming THOR: RAGNORAK) masterfully weaves lively humor with emotionally honest performances by Sam Neill and Julian Dennison.
AppleStoreCountry                        : United States
AppleStoreCatalogID                      : 1116813714
ContentRating                            : mpaa|PG-13|300|

Video
ID                                       : 1
Format                                   : AVC
Format/Info                              : Advanced Video Codec
Format profile                           :
Format settings, CABAC                   : No
Format settings, ReFrames                : 3 frames
Codec ID                                 : avc1
Codec ID/Info                            : Advanced Video Coding
Duration                                 : 1h 41mn
Bit rate                                 : 2 050 Kbps
Width                                    : 1 024 pixels
Height                                   : 430 pixels
Display aspect ratio                     : 2.40:1
Original display aspect ratio            : 2.40:1
Frame rate mode                          : Variable
Frame rate                               : 24.000 fps
Minimum frame rate                       : 23.810 fps
Maximum frame rate                       : 24.390 fps
Color space                              : YUV
Chroma subsampling                       : 4:2:0
Bit depth                                : 8 bits
Scan type                                : Progressive
Bits/(Pixel*Frame)                       : 0.194
Stream size                              : 1.45 GiB (94%)
Writing library                          : x264 core 148 r2721+55 e19946b t_mod_Custom [8-bit@all X86]
Encoding settings                        : cabac=0 / ref=3 / deblock=1:0:0 / analyse=0x1:0x111 / me=umh / subme=7 / psy=1 / fade_compensate=0.00 / psy_rd=1.00:0.15 / mixed_ref=1 / me_range=32 / chroma_me=1 / trellis=2 / 8x8dct=0 / cqm=0 / deadzone=21,11 / fast_pskip=0 / chroma_qp_offset=-3 / threads=12 / lookahead_threads=2 / sliced_threads=0 / nr=0 / decimate=0 / interlaced=0 / bluray_compat=0 / constrained_intra=0 / fgo=0 / bframes=3 / b_pyramid=1 / b_adapt=2 / b_bias=0 / direct=3 / weightb=1 / open_gop=0 / weightp=2 / keyint=240 / keyint_min=24 / scenecut=40 / intra_refresh=0 / rc_lookahead=50 / rc=2pass / mbtree=1 / bitrate=2050 / ratetol=1.0 / qcomp=0.60 / qpmin=0:0:0 / qpmax=69:69:69 / qpstep=4 / cplxblur=20.0 / qblur=0.5 / vbv_maxrate=14000 / vbv_bufsize=14000 / nal_hrd=none / filler=0 / ip_ratio=1.40 / aq=3:0.90 / aq-sensitivity=10.00 / aq-factor=1.00:1.00:1.00 / aq2=1:0.80 / aq2-sensitivity=13.00 / aq2-factor=1.00:1.00:1.00 / aq3=4:[0.50:0.50]:[0.50:0.50]:[0.50:0.50]:[0.50:0.50] / aq3-sensitivity=10.00 / aq3-factor=[1.00:1.00]:[1.00:1.00]:[1.00:1.00] / aq3-boundary=192:64:24
Encoded date                             : UTC 2016-10-02 19:12:09
Tagged date                              : UTC 2016-10-02 19:16:39
Color range                              : Limited
Matrix coefficients                      : BT.709

Audio
ID                                       : 2
Format                                   : AAC
Format/Info                              : Advanced Audio Codec
Format profile                           : LC
Codec ID                                 : 40
Duration                                 : 1h 41mn
Source duration                          : 1h 41mn
Bit rate mode                            : Variable
Bit rate                                 : 128 Kbps
Maximum bit rate                         : 133 Kbps
Channel(s)                               : 2 channels
Channel positions                        : Front: L R
Sampling rate                            : 48.0 KHz
Frame rate                               : 46.875 fps (1024 spf)
Compression mode                         : Lossy
Stream size                              : 92.8 MiB (6%)
Source stream size                       : 92.8 MiB (6%)
Language                                 : Russian
Default                                  : Yes
Alternate group                          : 1
Encoded date                             : UTC 2016-10-02 19:12:09
Tagged date                              : UTC 2016-10-02 19:16:39

Скриншоты:


Время раздачи: 24/7 (круглосуточно) (до появления первых 3-5 скачавших)
 
Не забывайте говорить Спасибо. Не уходите с раздачи!   
Торрент: Зарегистрирован [03 окт 2016, 18:48] Для скачивания .torrent
необходима регистрация
Или скачать с помощью
MediaGet
Статус:
Проверен
 
.torrent скачан: 0 раз
Хэш: d505bbbc2a284475e8fffa1116fd65425562a9f8
Размер: 1.55 ГБ (1 660 823 914 байт)
Стать Автором раздачи
 
 
Раздал: 100 ГБ
Скачал: 0 байт
Ратио: Seed.
Сообщения: 94068
Зарегистрирован: 09 апр 2015, 22:31


  • Похожие торренты
    Ответы
    Просмотры
    Последнее сообщение

Вернуться в Видео для мобильных устройств

Ресурс не предоставляет электронные версии произведений, а занимается лишь коллекционированием и каталогизацией ссылок, присылаемых и публикуемых на форуме нашими читателями. Если вы являетесь правообладателем какого-либо представленного материала и не желаете чтобы ссылка на него находилась в нашем каталоге, свяжитесь с нами и мы незамедлительно удалим её. Файлы для обмена на трекере предоставлены пользователями сайта, и администрация не несёт ответственности за их содержание. Просьба не заливать файлы, защищенные авторскими правами, а также файлы нелегального содержания!
cron