BBC: Тайны тёмной энергии / The Mysteries of Dark Energy (2015) HDTV [H.264/1080i]

 
 Статистика раздачи 
Размер: 2.57 ГБ   |  Зарегистрирован: 03 окт 2016, 18:47   |   .torrent скачан: 70 раз
Сидеров: 3  [ 0 байт/сек ]     Личеров: 0  [ 0 байт/сек ]  
  

BBC: Тайны тёмной энергии / The Mysteries of Dark Energy (2015) HDTV [H.264/1080i]

Сообщение explosiveone » 03 окт 2016, 18:47

BBC: Тайны тёмной энергии / The Mysteries of Dark Energy (2015) HDTV [H.264/1080i]

Телекомпания: Великобритания, США, BBC, Science Channel
Жанр: Документальный

Описание:
Наша Вселенная разваливается!.. Что-то заставляет галактики все быстрее и быстрее разлетаться в стороны. Как только физики совершили это страшное открытие - они сразу начали искать объяснение. В ожидании ответа ученые решили называть неведомую силу тёмной энергией. Пока не открыли тёмную энергию, мы могли полностью полагаться на теорию относительности Эйнштейна. Но теперь эта теория не может объяснить существование тёмной энергии. Впрочем, нет еще вообще никакой теории, объясняющей её существование. Это тёмное пятно современной науки - и нам нужен новый прорыв в теории и, без всякого лукавства, новый Эйнштейн...



Продолжительность: 00:48:50
Качество видео: HDTV
Перевод: Одноголосый закадровый, профессиональный
Язык: 1080i

Видео: AVC/H.264, 1920x1080, ~6783 Kbps
Аудио: AC3, 2 ch, 192 Kbps
Код:
Код: Выделить всё
Общее
Идентификатор                            : 1 (0x1)
Полное имя                               : F:\The.Mysteries.of.Dark.Energy.(2015).1080i.HDTV.ts
Формат                                   : MPEG-TS
Размер файла                             : 2,57 Гбайт
Продолжительность                        : 48 м. 41 с.
Режим общего битрейта                    : Переменный
Общий поток                              : 7544 Кбит/сек
Максимальный общий битрейт               : 35,5 Мбит/сек

Видео
Идентификатор                            : 4113 (0x1011)
Идентификатор меню                       : 1 (0x1)
Формат                                   : AVC
Формат/Информация                        : Advanced Video Codec
Профиль формата                          : [email protected]
Параметр CABAC формата                   : Да
Параметр ReFrames формата                : 3 кадра
Параметр GOP формата                     : M=4, N=28
Идентификатор кодека                     : 27
Продолжительность                        : 48 м. 41 с.
Битрейт                                  : 6783 Кбит/сек
Ширина                                   : 1920 пикселей
Высота                                   : 1080 пикселей
Соотношение сторон                       : 16:9
Частота кадров                           : 25,000 кадров/сек
Стандарт вещания                         : Component
Цветовое пространство                    : YUV
Субдискретизация насыщенности            : 4:2:0
Битовая глубина                          : 8 бит
Тип развёртки                            : Чересстрочная
Метод сохранения типа развёртки          : Раздельные поля
Порядок развёртки                        : Верхнее поле первое
Бит/(Пиксели*Кадры)                      : 0.131
Размер потока                            : 2,31 Гбайт (90%)
Цветовой диапазон                        : Limited
Основные цвета                           : BT.601 PAL
Характеристики трансфера                 : BT.470 System B, BT.470 System G
Коэффициенты матрицы                     : BT.601

Аудио #1
Идентификатор                            : 4352 (0x1100)
Идентификатор меню                       : 1 (0x1)
Формат                                   : AC-3
Формат/Информация                        : Audio Coding 3
Расширение режима                        : CM (complete main)
Параметр Endianness формата              : Big
Идентификатор кодека                     : 129
Продолжительность                        : 48 м. 41 с.
Вид битрейта                             : Постоянный
Битрейт                                  : 192 Кбит/сек
Каналы                                   : 2 канала
Расположение каналов                     : Front: L R
Частота                                  : 48,0 КГц
Частота кадров                           : 31,250 кадров/сек (1536 spf)
Метод сжатия                             : С потерями
Размер потока                            : 66,9 Мбайт (3%)
Язык                                     : Russian

Аудио #2
Идентификатор                            : 4353 (0x1101)
Идентификатор меню                       : 1 (0x1)
Формат                                   : AC-3
Формат/Информация                        : Audio Coding 3
Расширение режима                        : CM (complete main)
Параметр Endianness формата              : Big
Идентификатор кодека                     : 129
Продолжительность                        : 48 м. 41 с.
Вид битрейта                             : Постоянный
Битрейт                                  : 192 Кбит/сек
Каналы                                   : 2 канала
Расположение каналов                     : Front: L R
Частота                                  : 48,0 КГц
Частота кадров                           : 31,250 кадров/сек (1536 spf)
Метод сжатия                             : С потерями
Размер потока                            : 66,9 Мбайт (3%)
Язык                                     : English

Скриншоты:




Время раздачи: Пн-Пт с 16:00 до 20:00, Сб-Вс с 09:00 до 20:30 (до появления первых 3-5 скачавших)
 
Не забывайте говорить Спасибо. Не уходите с раздачи!   
Торрент: Зарегистрирован [03 окт 2016, 18:47] Для скачивания .torrent
необходима регистрация
Или скачать с помощью
MediaGet
Статус:
Проверен
 
.torrent скачан: 70 раз
Хэш: 7fc7e4ec3d6f543e60e6abe6fb330ce96a6f5101
Размер: 2.57 ГБ (2 755 312 208 байт)
Стать Автором раздачи
 
 
Раздал: 100 ГБ
Скачал: 0 байт
Ратио: Seed.
Сообщения: 82475
Зарегистрирован: 09 апр 2015, 22:31


  • Похожие торренты
    Ответы
    Просмотры
    Последнее сообщение

Вернуться в BBC

Кто сейчас на конференции

Сейчас эту тему просматривают: нет зарегистрированных пользователей и гости: 1

Ресурс не предоставляет электронные версии произведений, а занимается лишь коллекционированием и каталогизацией ссылок, присылаемых и публикуемых на форуме нашими читателями. Если вы являетесь правообладателем какого-либо представленного материала и не желаете чтобы ссылка на него находилась в нашем каталоге, свяжитесь с нами и мы незамедлительно удалим её. Файлы для обмена на трекере предоставлены пользователями сайта, и администрация не несёт ответственности за их содержание. Просьба не заливать файлы, защищенные авторскими правами, а также файлы нелегального содержания!