BBC: Тайны тёмной энергии / The Mysteries of Dark Energy (2015) HDTVRip

 
 Статистика раздачи 
Размер: 1.42 ГБ   |  Зарегистрирован: 03 окт 2016, 18:46   |   .torrent скачан: 0 раз
Сидеров: 1  [ 0 байт/сек ]     Личеров: 0  [ 0 байт/сек ]  
  

BBC: Тайны тёмной энергии / The Mysteries of Dark Energy (2015) HDTVRip

Сообщение explosiveone » 03 окт 2016, 18:46

BBC: Тайны тёмной энергии / The Mysteries of Dark Energy (2015) HDTVRip

Телекомпания: Великобритания, США, BBC, Science Channel
Жанр: Документальный

Описание:
Наша Вселенная разваливается!.. Что-то заставляет галактики все быстрее и быстрее разлетаться в стороны. Как только физики совершили это страшное открытие - они сразу начали искать объяснение. В ожидании ответа ученые решили называть неведомую силу тёмной энергией. Пока не открыли тёмную энергию, мы могли полностью полагаться на теорию относительности Эйнштейна. Но теперь эта теория не может объяснить существование тёмной энергии. Впрочем, нет еще вообще никакой теории, объясняющей её существование. Это тёмное пятно современной науки - и нам нужен новый прорыв в теории и, без всякого лукавства, новый Эйнштейн...

Продолжительность: 00:48:43
Качество видео: HDTVRip
Перевод: Одноголосый закадровый, профессиональный

Видео: AVC/H.264, 1280x720 [H.264/720-LQ], ~4000 Kbps
Аудио: AC3, 2 ch, 192 Kbps
Код:
Код: Выделить всё
Общее
Уникальный идентификатор                 : 230939261471781803256386017072102794701 (0xADBD48ADB0F44BA99491B6B054CC65CD)
Полное имя                               : F:\BBC_The Mystery of Dark Energy_720p.mkv
Формат                                   : Matroska
Версия формата                           : Version 4 / Version 2
Размер файла                             : 1,42 Гбайт
Продолжительность                        : 48 м. 43 с.
Режим общего битрейта                    : Переменный
Общий поток                              : 4181 Кбит/сек
Дата кодирования                         : UTC 2016-04-01 15:15:11
Программа кодирования                    : mkvmerge v7.3.0 ('Nouages') 64bit built on Oct 22 2014 18:53:34
Библиотека кодирования                   : libebml v1.3.0 + libmatroska v1.4.1

Видео
Идентификатор                            : 1
Формат                                   : AVC
Формат/Информация                        : Advanced Video Codec
Профиль формата                          :
Параметр CABAC формата                   : Да
Параметр ReFrames формата                : 3 кадра
Идентификатор кодека                     : V_MPEG4/ISO/AVC
Продолжительность                        : 48 м. 43 с.
Вид битрейта                             : Переменный
Битрейт                                  : 4000 Кбит/сек
Максимальный битрейт                     : 8000 Кбит/сек
Ширина                                   : 1280 пикселей
Высота                                   : 720 пикселей
Соотношение сторон                       : 16:9
Режим частоты кадров                     : Постоянный
Частота кадров                           : 25,000 кадров/сек
Стандарт вещания                         : NTSC
Цветовое пространство                    : YUV
Субдискретизация насыщенности            : 4:2:0
Битовая глубина                          : 8 бит
Тип развёртки                            : Прогрессивная
Бит/(Пиксели*Кадры)                      : 0.174
Размер потока                            : 1,36 Гбайт (95%)
Библиотека кодирования                   : x264 core 114
Настройки программы                      : cabac=1 / ref=3 / deblock=1:0:0 / analyse=0x3:0x113 / me=hex / subme=7 / psy=1 / psy_rd=1.00:0.00 / mixed_ref=1 / me_range=16 / chroma_me=1 / trellis=1 / 8x8dct=1 / cqm=2 / deadzone=21,11 / fast_pskip=1 / chroma_qp_offset=-4 / threads=6 / sliced_threads=0 / slices=1 / nr=0 / decimate=1 / interlaced=0 / constrained_intra=0 / bframes=3 / b_pyramid=0 / b_adapt=1 / b_bias=0 / direct=1 / weightb=1 / open_gop=0 / weightp=2 / keyint=250 / keyint_min=25 / scenecut=40 / intra_refresh=0 / rc_lookahead=40 / rc=2pass / mbtree=1 / bitrate=4000 / ratetol=1.0 / qcomp=0.60 / qpmin=5 / qpmax=69 / qpstep=4 / cplxblur=20.0 / qblur=0.5 / vbv_maxrate=8000 / vbv_bufsize=7995 / nal_hrd=vbr / ip_ratio=1.40 / aq=1:1.00
Default                                  : Да
Forced                                   : Нет
Цветовой диапазон                        : Limited
Основные цвета                           : BT.709
Характеристики трансфера                 : BT.709
Коэффициенты матрицы                     : BT.709

Аудио
Идентификатор                            : 2
Формат                                   : AC-3
Формат/Информация                        : Audio Coding 3
Расширение режима                        : CM (complete main)
Параметр Endianness формата              : Big
Идентификатор кодека                     : A_AC3
Продолжительность                        : 48 м. 43 с.
Вид битрейта                             : Постоянный
Битрейт                                  : 192 Кбит/сек
Каналы                                   : 2 канала
Расположение каналов                     : Front: L R
Частота                                  : 48,0 КГц
Частота кадров                           : 31,250 кадров/сек (1536 spf)
Метод сжатия                             : С потерями
Размер потока                            : 66,9 Мбайт (5%)
Default                                  : Да
Forced                                   : Нет

Скриншоты:




Время раздачи: Пн-Пт с 16:00 до 20:00, Сб-Вс с 09:00 до 20:30 (до появления первых 3-5 скачавших)
 
Не забывайте говорить Спасибо. Не уходите с раздачи!   
Торрент: Зарегистрирован [03 окт 2016, 18:46] Для скачивания .torrent
необходима регистрация
Или скачать с помощью
MediaGet
Статус:
Проверен
 
.torrent скачан: 0 раз
Хэш: 4f3b34ec646e541593df00427bd005396404385f
Размер: 1.42 ГБ (1 528 010 336 байт)
Стать Автором раздачи
 
 
Раздал: 100 ГБ
Скачал: 0 байт
Ратио: Seed.
Сообщения: 83290
Зарегистрирован: 09 апр 2015, 22:31


  • Похожие торренты
    Ответы
    Просмотры
    Последнее сообщение

Вернуться в BBC

Кто сейчас на конференции

Сейчас эту тему просматривают: нет зарегистрированных пользователей и гости: 1

Ресурс не предоставляет электронные версии произведений, а занимается лишь коллекционированием и каталогизацией ссылок, присылаемых и публикуемых на форуме нашими читателями. Если вы являетесь правообладателем какого-либо представленного материала и не желаете чтобы ссылка на него находилась в нашем каталоге, свяжитесь с нами и мы незамедлительно удалим её. Файлы для обмена на трекере предоставлены пользователями сайта, и администрация не несёт ответственности за их содержание. Просьба не заливать файлы, защищенные авторскими правами, а также файлы нелегального содержания!