Адриано Челентано / Adriano Celentano - Adriano Live (Rock Economy) (2012) DVD9

 
 Статистика раздачи 
Размер: 7.57 ГБ   |  Зарегистрирован: 03 окт 2016, 16:43   |   .torrent скачан: 0 раз
Сидеров: 1  [ 0 байт/сек ]     Личеров: 0  [ 0 байт/сек ]  
  

Адриано Челентано / Adriano Celentano - Adriano Live (Rock Economy) (2012) DVD9

Сообщение explosiveone » 03 окт 2016, 16:43

Адриано Челентано / Adriano Celentano - Adriano Live (Rock Economy) (2012) DVD9

Производство: Italy, Clan
Жанр: Музыка

Режиссер: Серджио Рубино
Актеры: Адриано Челентано, Габриэле Болоньези, Лука Коломбо, Джанни Далл’Альо, Карло Гаудьелло, Давид Гидони, Леле Мелотти, Дадо Нери, Микеле Пападья, Плачидо Саламоне, Джорджио Секко,

Описание:
Rock Economy (англ. Рок-экономи) — первый сольный концерт итальянского певца и киноактёра Адриано Челентано после восемнадцатилетнего перерыва, который прошёл 8 и 9 октября 2012 года в знаменитом амфитеатре Арена ди Верона. В концертной программе были представлены как старые хиты («Soli», «Azzurro», «Prisencolinensinainciusol»), так и песни из более поздних альбомов. На сцене вместе с Челентано выступили 18 музыкантов, 20 бэк-вокалистов и 25 танцоров. Показатели Canale 5, который транслировал концерт в прямом эфире, стали лучшими в прайм-тайм за последние пять лет — шоу смотрело девять миллионов зрителей.

Продолжительность: 01:50:34
Качество видео: DVD9
Перевод: Отсутствует
Язык: Italiano

Видео: MPEG-2, 720x576 (16:9), ~8000 Kbps
Аудио: PCM, 2 ch, 1536 Kbps
Код:
Код: Выделить всё
Общее
Полное имя                               : ADRIANO LIVE DVD9\VIDEO_TS\VTS_02_5.VOB
Формат                                   : MPEG-PS
Размер файла                             : 1024 Мбайт
Продолжительность                        : 14 м.
Режим общего битрейта                    : Переменный
Общий поток                              : 9687 Кбит/сек

Видео
Идентификатор                            : 224 (0xE0)
Формат                                   : MPEG Video
Версия формата                           : Version 2
Профиль формата                          : Main@Main
Параметр BVOP формата                    : Да
Параметр матрицы формата                 : По умолчанию
Параметр GOP формата                     : M=3, N=15
Продолжительность                        : 14 м.
Вид битрейта                             : Переменный
Битрейт                                  : 8000 Кбит/сек
Ширина                                   : 720 пикселей
Высота                                   : 576 пикселей
Соотношение сторон                       : 16:9
Частота кадров                           : 25,000 кадров/сек
Стандарт вещания                         : PAL
Цветовое пространство                    : YUV
Субдискретизация насыщенности            : 4:2:0
Битовая глубина                          : 8 бит
Тип развёртки                            : Прогрессивная
Метод сжатия                             : С потерями
Бит/(Пиксели*Кадры)                      : 0.772
Временной код первого кадра              : 00:59:30:13
Оригинал временного кода                 : Group of pictures header
GOP, открыто/закрыто                     : Закрыто
Размер потока                            : 841 Мбайт (82%)

Аудио
Идентификатор                            : 189 (0xBD)-160 (0xA0)
Формат                                   : PCM
Параметр Endianness формата              : Big
Параметр Sign формата                    : Signed
Режим смешивания                         : DVD-Video
Продолжительность                        : 14 м.
Вид битрейта                             : Постоянный
Битрейт                                  : 1536 Кбит/сек
Каналы                                   : 2 канала
Частота                                  : 48,0 КГц
Битовая глубина                          : 16 бит
Задержка видео                           : -337 мс.
Размер потока                            : 162 Мбайт (16%)

Меню
1: «Svalutation»
2: «Rip It Up»
3: «Si è spento il sole»
4: «La cumbia di chi cambia»
5: «L’emozione non ha voce»
6: «Pregherò»
7: «Mondo in mi 7°»
8: «Soli»
9: «L’arcobaleno»
10: «Yuppi du»
11: «Storia d’amore»
12: «Il ragazzo della via Gluck»
13: «Città senza testa»
14: «Straordinariamente»
15: «Scende la pioggia»
16: «Una carezza in un pugno»
17: «Caruso»
18: «Ti penso e cambia il mondo»
19: «Medley: Ringo»
20: «Azzurro»
21: «Ready Teddy»
22: «Prisencolinensinainciusol»

Доп. информация: Это официальный DVD9.

Скриншоты:




Время раздачи: 24/7 (до появления первых 3-5 скачавших)
 
Не забывайте говорить Спасибо. Не уходите с раздачи!   
Торрент: Зарегистрирован [03 окт 2016, 16:43] Скачать торрент
Скачать торрент
[ Размер 78.15 КБ / Просмотров 129 ]
Статус:
Проверен
 
.torrent скачан: 0 раз
Хэш: 3843f77de7140e65cd2ba184bf3ff9af2ac74e30
Размер: 7.57 ГБ (8 131 874 816 байт)
Стать Автором раздачи
 
 
Раздал: 100 ГБ
Скачал: 0 байт
Ратио: Seed.
Сообщения: 111582
Зарегистрирован: 09 апр 2015, 22:31


  • Похожие торренты
    Ответы
    Просмотры
    Последнее сообщение

Вернуться в Концерты (DVD)

Ресурс не предоставляет электронные версии произведений, а занимается лишь коллекционированием и каталогизацией ссылок, присылаемых и публикуемых на форуме нашими читателями. Если вы являетесь правообладателем какого-либо представленного материала и не желаете чтобы ссылка на него находилась в нашем каталоге, свяжитесь с нами и мы незамедлительно удалим её. Файлы для обмена на трекере предоставлены пользователями сайта, и администрация не несёт ответственности за их содержание. Просьба не заливать файлы, защищенные авторскими правами, а также файлы нелегального содержания!
cron