В.Ю. Егоров. Лекция «Как увидеть АПОЛЛОНЫ» (2016) WEBRip [H.264] [MP4|1920х1080]

 
 Статистика раздачи 
Размер: 1.25 ГБ   |  Зарегистрирован: 02 окт 2016, 17:15   |   .torrent скачан: 0 раз
Сидеров: 1  [ 0 байт/сек ]     Личеров: 0  [ 0 байт/сек ]  
  

В.Ю. Егоров. Лекция «Как увидеть АПОЛЛОНЫ» (2016) WEBRip [H.264] [MP4|1920х1080]

Сообщение explosiveone » 02 окт 2016, 17:15

В.Ю. Егоров. Лекция «Как увидеть АПОЛЛОНЫ» (2016) WEBRip

Жанр: Лекция, Документальный

Ведущий: В.Ю. Егоров.

Описание:
Ровно год назад Виталий рассказал, как была обнаружена советская станция «Марс-3» на Марсе. А уже через полгода – новый проект: создание и запуск микроспутника к Луне с целью обнаружения не только «Аполлонов», но и других памятников земной цивилизации на естественном спутнике Земли. Дата лекции - 3 февраля - поддержала тему Луны, и оказалась очень символичной – ведь именно в этот день 50 лет назад впервые в истории освоения космоса автоматическая лунная станция (АЛС) «Луна-9» совершила мягкую посадку на поверхность Луны.

Продолжительность: 01:47:51
Качество видео: WEBRip

Видео: AVC/H.264, 1920х1080 (16:9), ~1536 Кбит/сек
Аудио: AAC, 2 ch, 126 Кбит/сек, VBR
Код:
Код: Выделить всё
Формат                                   : MPEG-4
Профиль формата                          : Base Media
Идентификатор кодека                     : isom (isom/iso2/avc1/mp41)
Размер файла                             : 1,25 Гбайт
Продолжительность                        : 1 ч. 47 м.
Режим общего битрейта                    : Переменный
Общий поток                              : 1666 Кбит/сек
Дата кодирования                         : UTC 2016-04-25 16:08:33
Дата пометки                             : UTC 2016-04-25 16:08:33

Видео
Идентификатор                            : 1
Формат                                   : AVC
Формат/Информация                        : Advanced Video Codec
Профиль формата                          : High@L4
Параметр CABAC формата                   : Да
Параметр ReFrames формата                : 3 кадра
Идентификатор кодека                     : avc1
Идентификатор кодека/Информация          : Advanced Video Coding
Продолжительность                        : 1 ч. 47 м.
Битрейт                                  : 1536 Кбит/сек
Ширина                                   : 1920 пикселей
Высота                                   : 1080 пикселей
Соотношение сторон                       : 16:9
Режим частоты кадров                     : Переменный
Частота кадров                           : 23,976 (24000/1001) кадра/сек
Минимальная частота кадров               : 23,974 кадра/сек
Максимальная частота кадров              : 23,981 кадра/сек
Цветовое пространство                    : YUV
Субдискретизация насыщенности            : 4:2:0
Битовая глубина                          : 8 бит
Тип развёртки                            : Прогрессивная
Бит/(Пиксели*Кадры)                      : 0.031
Размер потока                            : 1,16 Гбайт (92%)
Дата кодирования                         : UTC 2016-04-25 16:08:33
Дата пометки                             : UTC 2016-04-25 16:08:33
Цветовой диапазон                        : Limited
Основные цвета                           : BT.709
Характеристики трансфера                 : BT.709
Коэффициенты матрицы                     : BT.709

Аудио
Идентификатор                            : 2
Формат                                   : AAC
Формат/Информация                        : Advanced Audio Codec
Профиль формата                          : LC
Идентификатор кодека                     : 40
Продолжительность                        : 1 ч. 47 м.
Вид битрейта                             : Переменный
Битрейт                                  : 126 Кбит/сек
Каналы                                   : 2 канала
Расположение каналов                     : Front: L R
Частота                                  : 44,1 КГц
Частота кадров                           : 43,066 кадра/сек (1024 spf)
Метод сжатия                             : С потерями
Размер потока                            : 96,9 Мбайт (8%)
Default                                  : Да
Alternate group                          : 1

Скриншоты:



Время раздачи:
по возможности (до появления первых 3-5 скачавших)
 
Не забывайте говорить Спасибо. Не уходите с раздачи!   
Торрент: Зарегистрирован [02 окт 2016, 17:15] Для скачивания .torrent
необходима регистрация
Или скачать с помощью
MediaGet
Статус:
Проверен
 
.torrent скачан: 0 раз
Хэш: fe9de94c02014db5f215eb9ef970eadd1f6d9eb6
Размер: 1.25 ГБ (1 347 380 856 байт)
Стать Автором раздачи
 
 
Раздал: 100 ГБ
Скачал: 0 байт
Ратио: Seed.
Сообщения: 94059
Зарегистрирован: 09 апр 2015, 22:31


  • Похожие торренты
    Ответы
    Просмотры
    Последнее сообщение

Вернуться в Видео для мобильных устройств

Ресурс не предоставляет электронные версии произведений, а занимается лишь коллекционированием и каталогизацией ссылок, присылаемых и публикуемых на форуме нашими читателями. Если вы являетесь правообладателем какого-либо представленного материала и не желаете чтобы ссылка на него находилась в нашем каталоге, свяжитесь с нами и мы незамедлительно удалим её. Файлы для обмена на трекере предоставлены пользователями сайта, и администрация не несёт ответственности за их содержание. Просьба не заливать файлы, защищенные авторскими правами, а также файлы нелегального содержания!
cron