BBC: Человек на Марсе. Экспедиция на красную планету / Man on Mars: Mission to the Red Planet (2014) HDTV [H.264/1080i]

 
 Статистика раздачи 
Размер: 2.05 ГБ   |  Зарегистрирован: 02 окт 2016, 17:14   |   .torrent скачан: 0 раз
Сидеров: 2  [ 0 байт/сек ]     Личеров: 0  [ 0 байт/сек ]  
  

BBC: Человек на Марсе. Экспедиция на красную планету / Man on Mars: Mission to the Red Planet (2014) HDTV [H.264/1080i]

Сообщение explosiveone » 02 окт 2016, 17:14

BBC: Человек на Марсе. Экспедиция на красную планету / Man on Mars: Mission to the Red Planet (2014) HDTV [H.264/1080i]

Телекомпания: Великобритания, BBC
Жанр: Документальный

Описание:
Марс... Красная планета. Многие поколения хотели узнать, есть ли там жизнь. Некоторые мечтают прогуляться по его поверхности. Сейчас, спустя более чем через 40 лет после высадки человека на Луну, НАСА ведет активную работу над пилотируемым полетом на Марс. Это очень трудная задача, связанная с большим риском для участников такой экспедиции. Для полета потребуются ракеты нового класса, новые способы выживания в космическом пространстве и новые космонавты... Что уже сделано и что еще предстоит сделать в этом направлении и способно ли НАСА воплотить в жизнь заветную мечту человека?

Продолжительность: 00:49:29
Качество видео: HDTV
Перевод: Одноголосый закадровый, профессиональный

Видео: AVC/H.264, 1920x1080, ~5248 Kbps
Аудио 1: AC3, 2 ch, 192 Kbps - Одноголосый закадровый, профессиональный
Аудио 2: AC3, 2 ch, 192 Kbps - Английский
Код:
Код: Выделить всё
Общее
Идентификатор                            : 1 (0x1)
Полное имя                               : F:\Man.on.Mars.-.Mission.on.the.Red.Planet.(2014).HDTV.1080i.ts
Формат                                   : MPEG-TS
Размер файла                             : 2,05 Гбайт
Продолжительность                        : 49 м. 29 с.
Режим общего битрейта                    : Переменный
Общий поток                              : 5929 Кбит/сек
Максимальный общий битрейт               : 35,5 Мбит/сек

Видео
Идентификатор                            : 4113 (0x1011)
Идентификатор меню                       : 1 (0x1)
Формат                                   : AVC
Формат/Информация                        : Advanced Video Codec
Профиль формата                          : [email protected]
Параметр CABAC формата                   : Да
Параметр ReFrames формата                : 4 кадра
Параметр GOP формата                     : M=4, N=32
Идентификатор кодека                     : 27
Продолжительность                        : 49 м. 29 с.
Вид битрейта                             : Переменный
Битрейт                                  : 5248 Кбит/сек
Максимальный битрейт                     : 40,0 Мбит/сек
Ширина                                   : 1920 пикселей
Высота                                   : 1080 пикселей
Соотношение сторон                       : 16:9
Частота кадров                           : 25,000 кадров/сек
Цветовое пространство                    : YUV
Субдискретизация насыщенности            : 4:2:0
Битовая глубина                          : 8 бит
Тип развёртки                            : Чересстрочная
Метод сохранения типа развёртки          : Раздельные поля
Порядок развёртки                        : Верхнее поле первое
Бит/(Пиксели*Кадры)                      : 0.101
Размер потока                            : 1,81 Гбайт (89%)
Цветовой диапазон                        : Limited
Основные цвета                           : BT.709
Характеристики трансфера                 : BT.709
Коэффициенты матрицы                     : BT.709

Аудио #1
Идентификатор                            : 4352 (0x1100)
Идентификатор меню                       : 1 (0x1)
Формат                                   : AC-3
Формат/Информация                        : Audio Coding 3
Расширение режима                        : CM (complete main)
Параметр Endianness формата              : Big
Идентификатор кодека                     : 129
Продолжительность                        : 49 м. 29 с.
Вид битрейта                             : Постоянный
Битрейт                                  : 192 Кбит/сек
Каналы                                   : 2 канала
Расположение каналов                     : Front: L R
Частота                                  : 48,0 КГц
Частота кадров                           : 31,250 кадров/сек (1536 spf)
Метод сжатия                             : С потерями
Размер потока                            : 68,0 Мбайт (3%)
Язык                                     : Russian

Аудио #2
Идентификатор                            : 4353 (0x1101)
Идентификатор меню                       : 1 (0x1)
Формат                                   : AC-3
Формат/Информация                        : Audio Coding 3
Расширение режима                        : CM (complete main)
Параметр Endianness формата              : Big
Идентификатор кодека                     : 129
Продолжительность                        : 49 м. 29 с.
Вид битрейта                             : Постоянный
Битрейт                                  : 192 Кбит/сек
Каналы                                   : 2 канала
Расположение каналов                     : Front: L R
Частота                                  : 48,0 КГц
Частота кадров                           : 31,250 кадров/сек (1536 spf)
Метод сжатия                             : С потерями
Размер потока                            : 68,0 Мбайт (3%)
Язык                                     : English

Скриншоты:




Время раздачи: Пн-Пт с 16:00 до 20:00, Сб-Вс с 09:00 до 20:30 (до появления первых 3-5 скачавших)
 
Не забывайте говорить Спасибо. Не уходите с раздачи!   
Торрент: Зарегистрирован [02 окт 2016, 17:14] Для скачивания .torrent
необходима регистрация
Или скачать с помощью
MediaGet
Статус:
Проверен
 
.torrent скачан: 0 раз
Хэш: de6e762e9ec4403b9a0ddd23dfa68fc59063755f
Размер: 2.05 ГБ (2 201 017 144 байт)
Стать Автором раздачи
 
 
Раздал: 100 ГБ
Скачал: 0 байт
Ратио: Seed.
Сообщения: 82289
Зарегистрирован: 09 апр 2015, 22:31


  • Похожие торренты
    Ответы
    Просмотры
    Последнее сообщение

Вернуться в BBC

Кто сейчас на конференции

Сейчас эту тему просматривают: нет зарегистрированных пользователей и гости: 1

Ресурс не предоставляет электронные версии произведений, а занимается лишь коллекционированием и каталогизацией ссылок, присылаемых и публикуемых на форуме нашими читателями. Если вы являетесь правообладателем какого-либо представленного материала и не желаете чтобы ссылка на него находилась в нашем каталоге, свяжитесь с нами и мы незамедлительно удалим её. Файлы для обмена на трекере предоставлены пользователями сайта, и администрация не несёт ответственности за их содержание. Просьба не заливать файлы, защищенные авторскими правами, а также файлы нелегального содержания!