BBC: Англия во времена Плантагенетов / The Plantagenets (2014) HDTVRip

 
 Статистика раздачи 
Размер: 1.79 ГБ   |  Зарегистрирован: 02 окт 2016, 17:05   |   .torrent скачан: 2 раз
Сидеров: 1  [ 0 байт/сек ]     Личеров: 0  [ 0 байт/сек ]  
  

BBC: Англия во времена Плантагенетов / The Plantagenets (2014) HDTVRip

Сообщение explosiveone » 02 окт 2016, 17:05

BBC: Англия во времена Плантагенетов / The Plantagenets (2014) HDTVRip

Телекомпания: Великобритания, BBC Two
Жанр: Документальный

Участники: Роберт Бартлетт

Описание:
Плантагенеты - королевская династия в Англии в 1154-1399 годах. Основатель династии Генрих II, граф Анжуйский. Название "Плантагенеты" произошло от того, что отец Генриха II - Жоффруа Красивый - украшал свой шлем веткой дрока (лат. planta genista). Под властью Генриха II и его ближайших преемников находились кроме Англии, обширные земли во Франции. Англия стала таким образом частью большой державы Плантагенетов. Однако большая часть французских земель была потеряна Плантагенетами в начале ХIII века. При Плантагенетах в Англии происходил процесс государственной централизации, приведший к образованию сословной монархии с сословным представительством - парламентом, который впервые был созван в 1265 году.

Продолжительность: 00:51:53 + 00:51:44 + 00:51:44
Качество видео: HDTVRip
Перевод: Одноголосый закадровый, профессиональный

Видео: Xvid, 720x400, ~1450 Kbps
Аудио: AC3, 2 ch, 192 Kbps
Код:
Код: Выделить всё
Общее
Полное имя                               : F:\Anglija.vo.vremena.plantagenetov.2014.XviD.HDTVRip\01.The Devil's Brood.avi
Формат                                   : AVI
Формат/Информация                        : Audio Video Interleave
Размер файла                             : 613 Мбайт
Продолжительность                        : 51 м. 53 с.
Общий поток                              : 1651 Кбит/сек
Программа кодирования                    : VirtualDubMod 1.5.10.3 | [url=http://www.virtualdub-fr.org]www.virtualdub-fr.org[/url] || (build 2550/release)
Библиотека кодирования                   : VirtualDubMod build 2550/release

Видео
Идентификатор                            : 0
Формат                                   : MPEG-4 Visual
Профиль формата                          : Advanced Simple@L5
Параметр BVOP формата                    : 1
Параметр QPel формата                    : Нет
Параметр GMC формата                     : Без точки перехода
Параметр матрицы формата                 : Default (H.263)
Идентификатор кодека                     : XVID
Идентификатор кодека/Подсказка           : XviD
Продолжительность                        : 51 м. 53 с.
Битрейт                                  : 1450 Кбит/сек
Ширина                                   : 720 пикселей
Высота                                   : 400 пикселей
Соотношение сторон                       : 16:9
Частота кадров                           : 25,000 кадров/сек
Цветовое пространство                    : YUV
Субдискретизация насыщенности            : 4:2:0
Битовая глубина                          : 8 бит
Тип развёртки                            : Прогрессивная
Метод сжатия                             : С потерями
Бит/(Пиксели*Кадры)                      : 0.201
Размер потока                            : 538 Мбайт (88%)
Библиотека кодирования                   : XviD 73

Аудио
Идентификатор                            : 1
Формат                                   : AC-3
Формат/Информация                        : Audio Coding 3
Расширение режима                        : CM (complete main)
Параметр Endianness формата              : Big
Идентификатор кодека                     : 2000
Продолжительность                        : 51 м. 53 с.
Вид битрейта                             : Постоянный
Битрейт                                  : 192 Кбит/сек
Каналы                                   : 2 канала
Расположение каналов                     : Front: L R
Частота                                  : 48,0 КГц
Частота кадров                           : 31,250 кадров/сек (1536 spf)
Метод сжатия                             : С потерями
Размер потока                            : 71,3 Мбайт (12%)
Выравнивание                             : Разделение по промежуткам
Продолжительность промежутка             : 40  мс. (1,00 видеокадр)
Время предзагрузки промежутка            : 500  мс.

Общее
Полное имя                               : F:\Anglija.vo.vremena.plantagenetov.2014.XviD.HDTVRip\02.An English Empire.avi
Формат                                   : AVI
Формат/Информация                        : Audio Video Interleave
Размер файла                             : 613 Мбайт
Продолжительность                        : 51 м. 54 с.
Общий поток                              : 1651 Кбит/сек
Программа кодирования                    : VirtualDubMod 1.5.10.3 | [url=http://www.virtualdub-fr.org]www.virtualdub-fr.org[/url] || (build 2550/release)
Библиотека кодирования                   : VirtualDubMod build 2550/release

Видео
Идентификатор                            : 0
Формат                                   : MPEG-4 Visual
Профиль формата                          : Advanced Simple@L5
Параметр BVOP формата                    : 1
Параметр QPel формата                    : Нет
Параметр GMC формата                     : Без точки перехода
Параметр матрицы формата                 : Default (H.263)
Идентификатор кодека                     : XVID
Идентификатор кодека/Подсказка           : XviD
Продолжительность                        : 51 м. 54 с.
Битрейт                                  : 1450 Кбит/сек
Ширина                                   : 720 пикселей
Высота                                   : 400 пикселей
Соотношение сторон                       : 16:9
Частота кадров                           : 25,000 кадров/сек
Цветовое пространство                    : YUV
Субдискретизация насыщенности            : 4:2:0
Битовая глубина                          : 8 бит
Тип развёртки                            : Прогрессивная
Метод сжатия                             : С потерями
Бит/(Пиксели*Кадры)                      : 0.201
Размер потока                            : 538 Мбайт (88%)
Библиотека кодирования                   : XviD 73

Аудио
Идентификатор                            : 1
Формат                                   : AC-3
Формат/Информация                        : Audio Coding 3
Расширение режима                        : CM (complete main)
Параметр Endianness формата              : Big
Идентификатор кодека                     : 2000
Продолжительность                        : 51 м. 54 с.
Вид битрейта                             : Постоянный
Битрейт                                  : 192 Кбит/сек
Каналы                                   : 2 канала
Расположение каналов                     : Front: L R
Частота                                  : 48,0 КГц
Частота кадров                           : 31,250 кадров/сек (1536 spf)
Метод сжатия                             : С потерями
Размер потока                            : 71,3 Мбайт (12%)
Выравнивание                             : Разделение по промежуткам
Продолжительность промежутка             : 40  мс. (1,00 видеокадр)
Время предзагрузки промежутка            : 500  мс.

Общее
Полное имя                               : F:\Anglija.vo.vremena.plantagenetov.2014.XviD.HDTVRip\03.The Death of Kings.avi
Формат                                   : AVI
Формат/Информация                        : Audio Video Interleave
Размер файла                             : 611 Мбайт
Продолжительность                        : 51 м. 44 с.
Общий поток                              : 1651 Кбит/сек
Программа кодирования                    : VirtualDubMod 1.5.10.3 | [url=http://www.virtualdub-fr.org]www.virtualdub-fr.org[/url] || (build 2550/release)
Библиотека кодирования                   : VirtualDubMod build 2550/release

Видео
Идентификатор                            : 0
Формат                                   : MPEG-4 Visual
Профиль формата                          : Advanced Simple@L5
Параметр BVOP формата                    : 1
Параметр QPel формата                    : Нет
Параметр GMC формата                     : Без точки перехода
Параметр матрицы формата                 : Default (H.263)
Идентификатор кодека                     : XVID
Идентификатор кодека/Подсказка           : XviD
Продолжительность                        : 51 м. 44 с.
Битрейт                                  : 1450 Кбит/сек
Ширина                                   : 720 пикселей
Высота                                   : 400 пикселей
Соотношение сторон                       : 16:9
Частота кадров                           : 25,000 кадров/сек
Цветовое пространство                    : YUV
Субдискретизация насыщенности            : 4:2:0
Битовая глубина                          : 8 бит
Тип развёртки                            : Прогрессивная
Метод сжатия                             : С потерями
Бит/(Пиксели*Кадры)                      : 0.201
Размер потока                            : 536 Мбайт (88%)
Библиотека кодирования                   : XviD 73

Аудио
Идентификатор                            : 1
Формат                                   : AC-3
Формат/Информация                        : Audio Coding 3
Расширение режима                        : CM (complete main)
Параметр Endianness формата              : Big
Идентификатор кодека                     : 2000
Продолжительность                        : 51 м. 44 с.
Вид битрейта                             : Постоянный
Битрейт                                  : 192 Кбит/сек
Каналы                                   : 2 канала
Расположение каналов                     : Front: L R
Частота                                  : 48,0 КГц
Частота кадров                           : 31,250 кадров/сек (1536 spf)
Метод сжатия                             : С потерями
Размер потока                            : 71,1 Мбайт (12%)
Выравнивание                             : Разделение по промежуткам
Продолжительность промежутка             : 40  мс. (1,00 видеокадр)
Время предзагрузки промежутка            : 500  мс.

Общее
Полное имя                               : F:\Anglija.vo.vremena.plantagenetov.2014.XviD.HDTVRip\Thumbs.db
Размер файла                             : 6,00 Кбайт
01. Дьявольское семя / The Devil's Brood
02. Великая Империя / An English Empire
03. Конец династии / The Death of Kings

Скриншоты:




Время раздачи: Пн-Пт с 16:00 до 20:00, Сб-Вс с 09:00 до 20:30 (до появления первых 3-5 скачавших)
 
Не забывайте говорить Спасибо. Не уходите с раздачи!   
Торрент: Зарегистрирован [02 окт 2016, 17:05] Для скачивания .torrent
необходима регистрация
Или скачать с помощью
MediaGet
Статус:
Проверен
 
.torrent скачан: 2 раз
Хэш: 1d5517504c422ae4dec15c311e7eecec4b95cbaa
Размер: 1.79 ГБ (1 926 344 704 байт)
Стать Автором раздачи
 
 
Раздал: 100 ГБ
Скачал: 0 байт
Ратио: Seed.
Сообщения: 90066
Зарегистрирован: 09 апр 2015, 22:31


Вернуться в BBC

Ресурс не предоставляет электронные версии произведений, а занимается лишь коллекционированием и каталогизацией ссылок, присылаемых и публикуемых на форуме нашими читателями. Если вы являетесь правообладателем какого-либо представленного материала и не желаете чтобы ссылка на него находилась в нашем каталоге, свяжитесь с нами и мы незамедлительно удалим её. Файлы для обмена на трекере предоставлены пользователями сайта, и администрация не несёт ответственности за их содержание. Просьба не заливать файлы, защищенные авторскими правами, а также файлы нелегального содержания!
cron