Мой лучший любовник / Prime (2005) HDRip [H.264] [MP4|1024x576]

 
 Статистика раздачи 
Размер: 1.85 ГБ   |  Зарегистрирован: 02 окт 2016, 17:02   |   .torrent скачан: 0 раз
Сидеров: 1  [ 0 байт/сек ]     Личеров: 0  [ 0 байт/сек ]  
  

Мой лучший любовник / Prime (2005) HDRip [H.264] [MP4|1024x576]

Сообщение explosiveone » 02 окт 2016, 17:02

Мой лучший любовник / Prime (2005) HDRip

«Лечебно-оздоровительная комедия»

Производство: США / Prime Film Productions LLC, Stratus Film Co., Team Todd
Жанр: Драма, Мелодрама, Комедия

Режиссер: Бен Янгер
Актеры: Ума Турман, Брайан Гринберг, Мэрил Стрип, Джон Абрахамс, Джерри Эдлер, Дорис Билэк, Мадхур Джэффри, Зэк Орт, Джон Ротман, Обри Доллар, Энни Париссе

Описание:
23-летний художник Дэйв влюбляется в 37-летнюю Рафи, обитательницу Нью-Йорка и деловую женщину, которая несколько обеспокоена таким подарком судьбы и пытается разобраться в ситуации с помощью своего психотерапевта Лизы. В принципе, она не против какой-то романтической истории, но уж слишком велика разница в возрасте. Психотерапевт убеждает Рафи, что в ее возрасте могут возникнуть всяческие кризисы, и потому надо без задней мысли просто развлечься и постараться получить удовольствие. Однако все меняется, когда Лиза узнает, что любовь с Рафи крутит ее собственный сын.


Возраст: 12+ (зрителям, достигшим 12 лет)
Рейтинг MPAA: PG-13 (детям до 13 лет просмотр нежелателен)

Продолжительность: 01:45:23
Качество видео: HDRip
Перевод: Дублированный - (R5)
Вид субтитров: Вшитые отключаемые
Язык субтитров: Русский, Английский
Реклама: Без рекламы

Видео: AVC/H.264 (Main@L3.1), 1024x576 (16:9), 2250 Кбит/сек
Аудио #1: AAC, 1 канал, 128 Кбит/сек - русский (дублированный)
Аудио #2: AAC, 1 канал, 128 Кбит/сек - английский
Код:
Код: Выделить всё
General
Complete name                            : C:\DGI\Prime.2005.576p.BDRip.AAC.x264.NNMclub.mp4
Format                                   : MPEG-4
Format profile                           : Base Media / Version 2
Codec ID                                 : mp42 (mp42/isom)
File size                                : 1.85 GiB
Duration                                 : 1h 45mn
Overall bit rate mode                    : Variable
Overall bit rate                         : 2 514 Kbps
Movie name                               : Prime
Performer                                : Ben Younger
Director                                 : Ben Younger
Actor                                    : Meryl Streep / Uma Thurman / Bryan Greenberg / Jon Abrahams
Screenplay by                            : Ben Younger
Producer                                 : Suzanne Todd / Jennifer Todd
Genre                                    : Comedy
ContentType                              : Short Film
Description                              : When Rafi (Uma Thurman), a 37-year-old single woman, meets David (Bryan Greenberg), a 23-year-old painter, it's love at first sight. But that love gets complicated fast when Rafi discovers that David is also the son of her therapist (Academy Award® winner Meryl Streep)! Professional help is about to get very personal in this entertaining and irresistibly charming hit that critics are calling "a funny and very sexy comedy" (Jess Cagle, WCBS/People Magazine).
Recorded date                            : 2005-10-25
Encoded date                             : UTC 2016-10-02 07:47:27
Tagged date                              : UTC 2016-10-02 08:00:26
Copyright                                : © 2005 Universal Studios
Cover                                    : Yes
Rating                                   : None
LongDescription                          : When Rafi (Uma Thurman), a 37-year-old single woman, meets David (Bryan Greenberg), a 23-year-old painter, it's love at first sight. But that love gets complicated fast when Rafi discovers that David is also the son of her therapist (Academy Award® winner Meryl Streep)! Professional help is about to get very personal in this entertaining and irresistibly charming hit that critics are calling "a funny and very sexy comedy" (Jess Cagle, WCBS/People Magazine).
AppleStoreCountry                        : United States
AppleStoreCatalogID                      : 362017063
ContentRating                            : mpaa|PG-13|300|

Video
ID                                       : 1
Format                                   : AVC
Format/Info                              : Advanced Video Codec
Format profile                           :
Format settings, CABAC                   : No
Format settings, ReFrames                : 3 frames
Codec ID                                 : avc1
Codec ID/Info                            : Advanced Video Coding
Duration                                 : 1h 45mn
Bit rate                                 : 2 250 Kbps
Width                                    : 1 024 pixels
Height                                   : 576 pixels
Display aspect ratio                     : 16:9
Frame rate mode                          : Variable
Frame rate                               : 23.976 (24000/1001) fps
Minimum frame rate                       : 23.810 fps
Maximum frame rate                       : 24.390 fps
Color space                              : YUV
Chroma subsampling                       : 4:2:0
Bit depth                                : 8 bits
Scan type                                : Progressive
Bits/(Pixel*Frame)                       : 0.159
Stream size                              : 1.66 GiB (89%)
Writing library                          : x264 core 148 r2721+55 e19946b t_mod_Custom [8-bit@all X86]
Encoding settings                        : cabac=0 / ref=3 / deblock=1:-3:-3 / analyse=0x1:0x111 / me=umh / subme=7 / psy=1 / fade_compensate=0.00 / psy_rd=1.00:0.15 / mixed_ref=1 / me_range=32 / chroma_me=1 / trellis=2 / 8x8dct=0 / cqm=0 / deadzone=21,11 / fast_pskip=0 / chroma_qp_offset=-3 / threads=12 / lookahead_threads=2 / sliced_threads=0 / nr=0 / decimate=0 / interlaced=0 / bluray_compat=0 / constrained_intra=0 / fgo=0 / bframes=3 / b_pyramid=1 / b_adapt=2 / b_bias=0 / direct=3 / weightb=1 / open_gop=0 / weightp=2 / keyint=240 / keyint_min=23 / scenecut=40 / intra_refresh=0 / rc_lookahead=50 / rc=2pass / mbtree=1 / bitrate=2250 / ratetol=1.0 / qcomp=0.60 / qpmin=0:0:0 / qpmax=69:69:69 / qpstep=4 / cplxblur=20.0 / qblur=0.5 / vbv_maxrate=14000 / vbv_bufsize=14000 / nal_hrd=none / filler=0 / ip_ratio=1.40 / aq=3:0.90 / aq-sensitivity=10.00 / aq-factor=1.00:1.00:1.00 / aq2=1:0.80 / aq2-sensitivity=13.00 / aq2-factor=1.00:1.00:1.00 / aq3=4:[0.50:0.50]:[0.50:0.50]:[0.50:0.50]:[0.50:0.50] / aq3-sensitivity=10.00 / aq3-factor=[1.00:1.00]:[1.00:1.00]:[1.00:1.00] / aq3-boundary=192:64:24
Encoded date                             : UTC 2016-10-02 07:47:27
Tagged date                              : UTC 2016-10-02 07:53:15
Color range                              : Limited
Matrix coefficients                      : BT.709
Menus                                    : 6

Audio #1
ID                                       : 2
Format                                   : AAC
Format/Info                              : Advanced Audio Codec
Format profile                           : LC
Codec ID                                 : 40
Duration                                 : 1h 45mn
Source duration                          : 1h 45mn
Bit rate mode                            : Variable
Bit rate                                 : 128 Kbps
Maximum bit rate                         : 133 Kbps
Channel(s)                               : 2 channels
Channel positions                        : Front: L R
Sampling rate                            : 48.0 KHz
Frame rate                               : 46.875 fps (1024 spf)
Compression mode                         : Lossy
Stream size                              : 96.5 MiB (5%)
Source stream size                       : 96.5 MiB (5%)
Language                                 : Russian
Default                                  : Yes
Alternate group                          : 1
Encoded date                             : UTC 2016-10-02 07:47:27
Tagged date                              : UTC 2016-10-02 07:53:15

Audio #2
ID                                       : 3
Format                                   : AAC
Format/Info                              : Advanced Audio Codec
Format profile                           : LC
Codec ID                                 : 40
Duration                                 : 1h 45mn
Source duration                          : 1h 45mn
Bit rate mode                            : Variable
Bit rate                                 : 128 Kbps
Maximum bit rate                         : 133 Kbps
Channel(s)                               : 2 channels
Channel positions                        : Front: L R
Sampling rate                            : 48.0 KHz
Frame rate                               : 46.875 fps (1024 spf)
Compression mode                         : Lossy
Stream size                              : 96.5 MiB (5%)
Source stream size                       : 96.5 MiB (5%)
Language                                 : English
Default                                  : No
Alternate group                          : 1
Encoded date                             : UTC 2016-10-02 07:47:27
Tagged date                              : UTC 2016-10-02 07:53:15

Text #1
ID                                       : 4
Format                                   : Timed Text
Muxing mode                              : sbtl
Codec ID                                 : tx3g
Duration                                 : 1h 39mn
Bit rate mode                            : Variable
Bit rate                                 : 108 bps
Stream size                              : 78.3 KiB (0%)
Language                                 : Russian
Default                                  : Yes
Forced                                   : No
Alternate group                          : 2
Encoded date                             : UTC 2016-10-02 07:47:27
Tagged date                              : UTC 2016-10-02 07:53:15

Text #2
ID                                       : 5
Format                                   : Timed Text
Muxing mode                              : sbtl
Codec ID                                 : tx3g
Duration                                 : 1h 39mn
Bit rate mode                            : Variable
Bit rate                                 : 74 bps
Stream size                              : 53.7 KiB (0%)
Language                                 : English
Default                                  : No
Forced                                   : No
Alternate group                          : 2
Encoded date                             : UTC 2016-10-02 07:47:27
Tagged date                              : UTC 2016-10-02 07:53:15

Menu
ID                                       : 6
Codec ID                                 : text
Duration                                 : 1h 45mn
Language                                 : English
Encoded date                             : UTC 2016-10-02 07:53:15
Tagged date                              : UTC 2016-10-02 07:53:15
Bit rate mode                            : CBR
Menu For                                 : 1
00:00:00.000                             : 00:00:00.000
00:07:03.589                             : 00:07:03.589
00:16:30.614                             : 00:16:30.614
00:25:49.297                             : 00:25:49.297
00:34:24.187                             : 00:34:24.187
00:45:35.482                             : 00:45:35.482
00:52:46.079                             : 00:52:46.079
01:00:56.444                             : 01:00:56.444
01:10:09.914                             : 01:10:09.914
01:21:05.694                             : 01:21:05.694
01:29:26.652                             : 01:29:26.652
01:37:52.616                             : 01:37:52.616

Скриншоты:


Время раздачи: 24/7 (круглосуточно) (до появления первых 3-5 скачавших)
 
Не забывайте говорить Спасибо. Не уходите с раздачи!   
Торрент: Зарегистрирован [02 окт 2016, 17:02] Для скачивания .torrent
необходима регистрация
Или скачать с помощью
MediaGet
Статус:
Проверен
 
.torrent скачан: 0 раз
Хэш: a47c6d2361176ddcdfadbb946d1b37e8fbfbe5e9
Размер: 1.85 ГБ (1 986 985 026 байт)
Стать Автором раздачи
 
 
Раздал: 100 ГБ
Скачал: 0 байт
Ратио: Seed.
Сообщения: 94085
Зарегистрирован: 09 апр 2015, 22:31


  • Похожие торренты
    Ответы
    Просмотры
    Последнее сообщение

Вернуться в Видео для мобильных устройств

Ресурс не предоставляет электронные версии произведений, а занимается лишь коллекционированием и каталогизацией ссылок, присылаемых и публикуемых на форуме нашими читателями. Если вы являетесь правообладателем какого-либо представленного материала и не желаете чтобы ссылка на него находилась в нашем каталоге, свяжитесь с нами и мы незамедлительно удалим её. Файлы для обмена на трекере предоставлены пользователями сайта, и администрация не несёт ответственности за их содержание. Просьба не заливать файлы, защищенные авторскими правами, а также файлы нелегального содержания!
cron