Судная ночь: Трилогия / The Purge Bundle (2013/2014/2016) HDRip [H.264] [MP4|1024x428]

 
 Статистика раздачи 
Размер: 4.81 ГБ   |  Зарегистрирован: 01 окт 2016, 23:50   |   .torrent скачан: 0 раз
Сидеров: 1  [ 0 байт/сек ]     Личеров: 0  [ 0 байт/сек ]  
  

Судная ночь: Трилогия / The Purge Bundle (2013/2014/2016) HDRip [H.264] [MP4|1024x428]

Сообщение explosiveone » 01 окт 2016, 23:50

Судная ночь: Трилогия / The Purge Bundle (2013/2014/2016) HDRip

«Одну ночь в году дозволено все. Главное - дожить до рассвета»

Производство:
США, Франция, Blumhouse Productions, Platinum Dunes, Universal Pictures
Жaнр: Ужасы, Боевик, Фантастика, Триллер.

Режиссер: Джеймс ДеМонако
Актеры: Итан Хоук, Лина Хиди, Макс Буркхолдер, Аделаида Кэйн, Эдвин Ходж, Риз Уэйкфилд, Тони Оллер, Ария Барейкис, Том Йи, Крис Малки, Фрэнк Грилло, Элизабет Митчелл, Майкелти Уильямсон, Джозеф Джулиан Сория, Бетти Гэбриел, Терри Серпико, Эдвин Ходж, Кайл Сикор, Бэрри Нолан, Лиза Колон-Зайас

Описание:
Мир будущего - мир без преступности... безработицы... войн. И все это благодаря одной ночи в году, когда можно отправить на тот свет любого - злобного босса, шумных соседей, надоевших родственников.
В Судную ночь дозволено все - главное дожить до рассвета.

Продолжительность: 01:25:18 | 01:43:34 | 01:48:47
Перевод: Дублированный - Blu-ray CEE, iTunes
Вид субтитров: Вшитые отключаемые
Язык субтитров: Русский, Английский
Качество видео: HDRip

Видео: AVC/H.264 (Main@L3.1), 1024x428 (2.40:1), ~ 2000 Кбит/сек
Аудио #1: AAC, 2 канала, 128 Кбит/сек - русский (дублированный)
Аудио #2: AAC, 2 канала, 128 Кбит/сек - английский

Судная ночь / The Purge (2013) HDRip

«Одну ночь в году дозволено все. Главное - дожить до рассвета»
Производство: США, Франция, Blumhouse Productions, Platinum Dunes, Universal International Pictures
Жанр: Триллер, Ужасы

Режиссер: Джеймс ДеМонако
Актeры: Итан Хоук, Лина Хиди, Макс Буркхолдер, Аделаида Кэйн, Эдвин Ходж, Риз Уэйкфилд, Тони Оллер, Ария Барейкис, Том Йи, Крис Малки

Опиcание:
Мир будущего - мир без преступности... безработицы... войн. И все это благодаря одной ночи в году, когда можно отправить на тот свет любого - злобного босса, шумных соседей, надоевших родственников. В Судную ночь дозволено все - главное дожить до рассвета.


Возраст: 18+ (зрителям, достигшим 18 лет. запрещено для детей)
Рейтинг MPAA: R (лицам до 17 лет обязательно присутствие взрослого)

Продолжительноcть: 01:25:18
Качество видео: HDRip
Пeревод: Дублированный - Blu-ray CEE
Вид субтитров: Вшитые отключаемые
Язык субтитров: Русский, Английский

Видео: AVC/H.264 (Main@L3.1), 1024x428 (2.40:1), 2050 Кбит/сек
Аудио #1: AAC, 2 канала, 128 Кбит/сек - русский (дублированный)
Аудио #2: AAC, 2 канала, 128 Кбит/сек - английский
Код:
Код: Выделить всё
General
Complete name                            : C:\DGI\The Purge Bundle (2013-2016).576p.AAC.NNMclub\The Purge.2013.576p.HDRip.AAC.x264.mp4
Format                                   : MPEG-4
Format profile                           : Base Media / Version 2
Codec ID                                 : mp42 (mp42/isom)
File size                                : 1.38 GiB
Duration                                 : 1h 25mn
Overall bit rate mode                    : Variable
Overall bit rate                         : 2 314 Kbps
Movie name                               : The Purge
Performer                                : James DeMonaco
Director                                 : James DeMonaco
Actor                                    : Ethan Hawke / Lena Headey / Adelaide Kane / Max Burkholder / Rhys Wakefield
Screenplay by                            : James DeMonaco
Producer                                 : Sébastien K. Lemercier / Jason Blum / Michael Bay / Andrew Form / Brad Fuller / Bradley Fuller
Genre                                    : Thriller
ContentType                              : Short Film
Description                              : If you could commit any crime without consequences, what would you do? From the producer of Paranormal Activity and Sinister, comes an inventive thriller that dares you to survive the most dangerous night in America – The Purge – when all crime is legal for 12 hours. When an intruder breaks into James Sandin’s (Ethan Hawke) gated community during the yearly lockdown, he begins a sequence of events that threatens to tear a family apart. Now, it is up to James, his wife, Mary (Lena Headey), and their kids to make it through the night without turning into the monsters from whom they hide.
Recorded date                            : 2013-06-07
Encoded date                             : UTC 2016-09-22 13:16:42
Tagged date                              : UTC 2016-09-22 13:44:51
Copyright                                : © 2013 Universal Studios
Cover                                    : Yes
Rating                                   : None
LongDescription                          : If you could commit any crime without consequences, what would you do? From the producer of Paranormal Activity and Sinister, comes an inventive thriller that dares you to survive the most dangerous night in America – The Purge – when all crime is legal for 12 hours. When an intruder breaks into James Sandin’s (Ethan Hawke) gated community during the yearly lockdown, he begins a sequence of events that threatens to tear a family apart. Now, it is up to James, his wife, Mary (Lena Headey), and their kids to make it through the night without turning into the monsters from whom they hide.
AppleStoreCountry                        : United States
AppleStoreCatalogID                      : 670122994
ContentRating                            : mpaa|R|400|

Video
ID                                       : 1
Format                                   : AVC
Format/Info                              : Advanced Video Codec
Format profile                           :
Format settings, CABAC                   : No
Format settings, ReFrames                : 3 frames
Codec ID                                 : avc1
Codec ID/Info                            : Advanced Video Coding
Duration                                 : 1h 25mn
Bit rate                                 : 2 050 Kbps
Width                                    : 1 024 pixels
Height                                   : 428 pixels
Display aspect ratio                     : 2.40:1
Frame rate mode                          : Variable
Frame rate                               : 23.976 (24000/1001) fps
Minimum frame rate                       : 23.810 fps
Maximum frame rate                       : 24.390 fps
Color space                              : YUV
Chroma subsampling                       : 4:2:0
Bit depth                                : 8 bits
Scan type                                : Progressive
Bits/(Pixel*Frame)                       : 0.195
Stream size                              : 1.22 GiB (89%)
Writing library                          : x264 core 148 r2705+54 9f484c1 t_mod_Custom [8-bit@all X86]
Encoding settings                        : cabac=0 / ref=3 / deblock=1:0:0 / analyse=0x1:0x131 / me=umh / subme=7 / psy=1 / fade_compensate=0.00 / psy_rd=1.00:0.10 / mixed_ref=1 / me_range=32 / chroma_me=1 / trellis=2 / 8x8dct=0 / cqm=0 / deadzone=21,11 / fast_pskip=0 / chroma_qp_offset=-3 / threads=13 / lookahead_threads=2 / sliced_threads=0 / nr=0 / decimate=0 / interlaced=0 / bluray_compat=0 / constrained_intra=0 / fgo=0 / bframes=3 / b_pyramid=1 / b_adapt=2 / b_bias=0 / direct=3 / weightb=1 / open_gop=0 / weightp=2 / keyint=240 / keyint_min=23 / scenecut=40 / intra_refresh=0 / rc_lookahead=50 / rc=2pass / mbtree=1 / bitrate=2050 / ratetol=1.0 / qcomp=0.60 / qpmin=0:0:0 / qpmax=69:69:69 / qpstep=4 / cplxblur=20.0 / qblur=0.5 / vbv_maxrate=14000 / vbv_bufsize=14000 / nal_hrd=none / filler=0 / ip_ratio=1.40 / aq=3:1.00 / aq-sensitivity=10.00 / aq-factor=1.00:1.00:1.00 / aq2=1:0.90 / aq2-sensitivity=15.00 / aq2-factor=1.00:1.00:1.00 / aq3=4:[0.50:0.50]:[0.50:0.50]:[0.50:0.50]:[0.50:0.50] / aq3-sensitivity=10.00 / aq3-factor=[1.00:1.00]:[1.00:1.00]:[1.00:1.00] / aq3-boundary=192:64:24
Encoded date                             : UTC 2016-09-22 13:16:42
Tagged date                              : UTC 2016-09-22 13:31:27
Color range                              : Limited
Matrix coefficients                      : BT.709
Menus                                    : 7

Audio #1
ID                                       : 2
Format                                   : AAC
Format/Info                              : Advanced Audio Codec
Format profile                           : LC
Codec ID                                 : 40
Duration                                 : 1h 25mn
Source duration                          : 1h 25mn
Bit rate mode                            : Variable
Bit rate                                 : 128 Kbps
Maximum bit rate                         : 133 Kbps
Channel(s)                               : 2 channels
Channel positions                        : Front: L R
Sampling rate                            : 48.0 KHz
Frame rate                               : 46.875 fps (1024 spf)
Compression mode                         : Lossy
Stream size                              : 78.0 MiB (6%)
Source stream size                       : 78.0 MiB (6%)
Language                                 : Russian
Default                                  : Yes
Alternate group                          : 1
Encoded date                             : UTC 2016-09-22 13:16:42
Tagged date                              : UTC 2016-09-22 13:31:27

Audio #2
ID                                       : 3
Format                                   : AAC
Format/Info                              : Advanced Audio Codec
Format profile                           : LC
Codec ID                                 : 40
Duration                                 : 1h 25mn
Source duration                          : 1h 25mn
Bit rate mode                            : Variable
Bit rate                                 : 128 Kbps
Maximum bit rate                         : 132 Kbps
Channel(s)                               : 2 channels
Channel positions                        : Front: L R
Sampling rate                            : 48.0 KHz
Frame rate                               : 46.875 fps (1024 spf)
Compression mode                         : Lossy
Stream size                              : 78.1 MiB (6%)
Source stream size                       : 78.1 MiB (6%)
Language                                 : English
Default                                  : No
Alternate group                          : 1
Encoded date                             : UTC 2016-09-22 13:16:42
Tagged date                              : UTC 2016-09-22 13:31:27

Text #1
ID                                       : 4
Format                                   : Timed Text
Muxing mode                              : sbtl
Codec ID                                 : tx3g
Duration                                 : 1h 25mn
Bit rate mode                            : Variable
Bit rate                                 : 0 bps
Stream size                              : 67.0 Bytes (0%)
Language                                 : Russian
Default                                  : Yes
Forced                                   : No
Alternate group                          : 2
Encoded date                             : UTC 2016-09-22 13:16:42
Tagged date                              : UTC 2016-09-22 13:31:27

Text #2
ID                                       : 5
Format                                   : Timed Text
Muxing mode                              : sbtl
Codec ID                                 : tx3g
Duration                                 : 1h 25mn
Bit rate mode                            : Variable
Bit rate                                 : 86 bps
Stream size                              : 53.8 KiB (0%)
Language                                 : Russian
Default                                  : No
Forced                                   : No
Alternate group                          : 2
Encoded date                             : UTC 2016-09-22 13:16:42
Tagged date                              : UTC 2016-09-22 13:31:27

Text #3
ID                                       : 6
Format                                   : Timed Text
Muxing mode                              : sbtl
Codec ID                                 : tx3g
Duration                                 : 1h 20mn
Bit rate mode                            : Variable
Bit rate                                 : 59 bps
Stream size                              : 34.7 KiB (0%)
Language                                 : English
Default                                  : No
Forced                                   : No
Alternate group                          : 2
Encoded date                             : UTC 2016-09-22 13:16:42
Tagged date                              : UTC 2016-09-22 13:31:27

Menu
ID                                       : 7
Codec ID                                 : text
Duration                                 : 1h 25mn
Language                                 : English
Encoded date                             : UTC 2016-09-22 13:31:27
Tagged date                              : UTC 2016-09-22 13:31:27
Bit rate mode                            : CBR
Menu For                                 : 1
00:00:00.000                             : 00:00:00.000
00:04:30.562                             : 00:04:30.562
00:07:24.402                             : 00:07:24.402
00:13:48.619                             : 00:13:48.619
00:18:24.103                             : 00:18:24.103
00:23:11.472                             : 00:23:11.473
00:28:13.859                             : 00:28:13.859
00:31:33.266                             : 00:31:33.266
00:35:42.182                             : 00:35:42.182
00:39:28.741                             : 00:39:28.741
00:44:37.508                             : 00:44:37.508
00:47:53.120                             : 00:47:53.120
00:50:33.447                             : 00:50:33.447
00:56:02.234                             : 00:56:02.234
01:00:20.283                             : 01:00:20.283
01:03:35.729                             : 01:03:35.729
01:07:09.775                             : 01:07:09.776
01:11:09.891                             : 01:11:09.891
01:16:01.807                             : 01:16:01.807
01:19:27.096                             : 01:19:27.096


Скриншоты:


Судная ночь 2 / The Purge: Anarchy (2014) HDRip

«Добро пожаловать в идеальное будущее, где одну ночь в году все преступления легальны»
#77Прoизводство: США, Франция, Universal Pictures, Platinum Dunes, Blumhouse Productions
Жaнр: Триллер, Ужасы, Криминал, Боевик

Режиccер: Джеймс ДеМонако
Aктеры: Фрэнк Грилло, Кармен Эджого, Зак Гилфорд, Киле Санчес, Майкл К. Уильямс, Зои Борд, Жустина Мачадо, Джон Бизли, Джек Конли, Ноэль Гульеми

Опиcание:
Добро пожаловать в идеальный мир будущего, мир без преступности и войн. И только один раз в году роскошная спокойная жизнь сменяется анархией. Этой ночью дозволено все: во тьме улиц одни жаждут мести, другие ищут развлечений, остальные пытаются дожить до рассвета...


Возраст: 18+ (зрителям, достигшим 18 лет. запрещено для детей)
Рейтинг MPAA: R (лицам до 17 лет обязательно присутствие взрослого)

Продoлжительность: 01:43:34
Качество видео: HDRip
Пeревод: Дублированный - Blu-ray CEE
Вид субтитров: Вшитые отключаемые
Язык субтитров: Русский, Английский

Видео: AVC/H.264 (Main@L3.1), 1024x428 (2.40:1), 2000 Кбит/сек
Аудио #1: AAC, 2 канала, 128 Кбит/сек - русский (дублированный)
Аудио #2: AAC, 2 канала, 128 Кбит/сек - английский
Код:
Код: Выделить всё
General
Complete name                            : C:\DGI\The Purge Bundle (2013-2016).576p.AAC.NNMclub\The Purge-II Anarchy.2014.576p.HDRip.mp4
Format                                   : MPEG-4
Format profile                           : Base Media / Version 2
Codec ID                                 : mp42 (mp42/isom)
File size                                : 1.64 GiB
Duration                                 : 1h 43mn
Overall bit rate mode                    : Variable
Overall bit rate                         : 2 264 Kbps
Movie name                               : The Purge: Anarchy
Performer                                : James DeMonaco
Director                                 : James DeMonaco
Actor                                    : Frank Grillo / Carmen Ejogo / Zach Gilford / Kiele Sanchez / Zoe Soul / Edwin Hodge / Michael K. Williams
Screenplay by                            : James DeMonaco
Producer                                 : Jason Blum / Michael Bay / Andrew Form / Brad Fuller / Sébastien K. Lemercier
Genre                                    : Thriller
ContentType                              : Short Film
Description                              : The New Founders of America invite you to celebrate your annual right to Purge. The Purge: Anarchy,
Recorded date                            : 2014-07-18
Encoded date                             : UTC 2016-09-22 13:17:27
Tagged date                              : UTC 2016-09-22 13:51:43
Copyright                                : © 2014 Universal Studios
Cover                                    : Yes
Rating                                   : None
LongDescription                          : The New Founders of America invite you to celebrate your annual right to Purge. The Purge: Anarchy takes it to the streets for the country’s yearly 12 hours of anarchy, when all crime is legal. This new story follows an unlikely group of five strangers over the course of the night. As they fight to survive a night fraught with impossible decisions, these strangers will find out just how far they will go to protect themselves and, ultimately, each other.
AppleStoreCountry                        : United States
AppleStoreCatalogID                      : 894846303
ContentRating                            : mpaa|R|400|

Video
ID                                       : 1
Format                                   : AVC
Format/Info                              : Advanced Video Codec
Format profile                           :
Format settings, CABAC                   : No
Format settings, ReFrames                : 3 frames
Codec ID                                 : avc1
Codec ID/Info                            : Advanced Video Coding
Duration                                 : 1h 43mn
Bit rate                                 : 2 000 Kbps
Width                                    : 1 024 pixels
Height                                   : 428 pixels
Display aspect ratio                     : 2.40:1
Frame rate mode                          : Variable
Frame rate                               : 23.976 (24000/1001) fps
Minimum frame rate                       : 23.810 fps
Maximum frame rate                       : 24.390 fps
Color space                              : YUV
Chroma subsampling                       : 4:2:0
Bit depth                                : 8 bits
Scan type                                : Progressive
Bits/(Pixel*Frame)                       : 0.190
Stream size                              : 1.45 GiB (88%)
Writing library                          : x264 core 148 r2705+54 9f484c1 t_mod_Custom [8-bit@all X86]
Encoding settings                        : cabac=0 / ref=3 / deblock=1:0:0 / analyse=0x1:0x131 / me=umh / subme=7 / psy=1 / fade_compensate=0.00 / psy_rd=1.00:0.10 / mixed_ref=1 / me_range=32 / chroma_me=1 / trellis=2 / 8x8dct=0 / cqm=0 / deadzone=21,11 / fast_pskip=0 / chroma_qp_offset=-3 / threads=13 / lookahead_threads=2 / sliced_threads=0 / nr=0 / decimate=0 / interlaced=0 / bluray_compat=0 / constrained_intra=0 / fgo=0 / bframes=3 / b_pyramid=1 / b_adapt=2 / b_bias=0 / direct=3 / weightb=1 / open_gop=0 / weightp=2 / keyint=240 / keyint_min=23 / scenecut=40 / intra_refresh=0 / rc_lookahead=50 / rc=2pass / mbtree=1 / bitrate=2000 / ratetol=1.0 / qcomp=0.60 / qpmin=0:0:0 / qpmax=69:69:69 / qpstep=4 / cplxblur=20.0 / qblur=0.5 / vbv_maxrate=14000 / vbv_bufsize=14000 / nal_hrd=none / filler=0 / ip_ratio=1.40 / aq=3:1.00 / aq-sensitivity=10.00 / aq-factor=1.00:1.00:1.00 / aq2=1:0.90 / aq2-sensitivity=15.00 / aq2-factor=1.00:1.00:1.00 / aq3=4:[0.50:0.50]:[0.50:0.50]:[0.50:0.50]:[0.50:0.50] / aq3-sensitivity=10.00 / aq3-factor=[1.00:1.00]:[1.00:1.00]:[1.00:1.00] / aq3-boundary=192:64:24
Encoded date                             : UTC 2016-09-22 13:17:27
Tagged date                              : UTC 2016-09-22 13:33:53
Color range                              : Limited
Matrix coefficients                      : BT.709
Menus                                    : 7

Audio #1
ID                                       : 2
Format                                   : AAC
Format/Info                              : Advanced Audio Codec
Format profile                           : LC
Codec ID                                 : 40
Duration                                 : 1h 43mn
Source duration                          : 1h 43mn
Bit rate mode                            : Variable
Bit rate                                 : 128 Kbps
Maximum bit rate                         : 133 Kbps
Channel(s)                               : 2 channels
Channel positions                        : Front: L R
Sampling rate                            : 48.0 KHz
Frame rate                               : 46.875 fps (1024 spf)
Compression mode                         : Lossy
Stream size                              : 94.8 MiB (6%)
Source stream size                       : 94.8 MiB (6%)
Language                                 : Russian
Default                                  : Yes
Alternate group                          : 1
Encoded date                             : UTC 2016-09-22 13:17:27
Tagged date                              : UTC 2016-09-22 13:33:53

Audio #2
ID                                       : 3
Format                                   : AAC
Format/Info                              : Advanced Audio Codec
Format profile                           : LC
Codec ID                                 : 40
Duration                                 : 1h 43mn
Source duration                          : 1h 43mn
Bit rate mode                            : Variable
Bit rate                                 : 128 Kbps
Maximum bit rate                         : 133 Kbps
Channel(s)                               : 2 channels
Channel positions                        : Front: L R
Sampling rate                            : 48.0 KHz
Frame rate                               : 46.875 fps (1024 spf)
Compression mode                         : Lossy
Stream size                              : 94.8 MiB (6%)
Source stream size                       : 94.8 MiB (6%)
Language                                 : English
Default                                  : No
Alternate group                          : 1
Encoded date                             : UTC 2016-09-22 13:17:27
Tagged date                              : UTC 2016-09-22 13:33:53

Text #1
ID                                       : 4
Format                                   : Timed Text
Muxing mode                              : sbtl
Codec ID                                 : tx3g
Duration                                 : 1h 43mn
Bit rate mode                            : Variable
Bit rate                                 : 1 bps
Stream size                              : 438 Bytes (0%)
Language                                 : Russian
Default                                  : Yes
Forced                                   : No
Alternate group                          : 2
Encoded date                             : UTC 2016-09-22 13:17:27
Tagged date                              : UTC 2016-09-22 13:33:53

Text #2
ID                                       : 5
Format                                   : Timed Text
Muxing mode                              : sbtl
Codec ID                                 : tx3g
Duration                                 : 1h 43mn
Bit rate mode                            : Variable
Bit rate                                 : 81 bps
Stream size                              : 61.3 KiB (0%)
Language                                 : Russian
Default                                  : No
Forced                                   : No
Alternate group                          : 2
Encoded date                             : UTC 2016-09-22 13:17:27
Tagged date                              : UTC 2016-09-22 13:33:53

Text #3
ID                                       : 6
Format                                   : Timed Text
Muxing mode                              : sbtl
Codec ID                                 : tx3g
Duration                                 : 1h 36mn
Bit rate mode                            : Variable
Bit rate                                 : 61 bps
Stream size                              : 42.9 KiB (0%)
Language                                 : English
Default                                  : No
Forced                                   : No
Alternate group                          : 2
Encoded date                             : UTC 2016-09-22 13:17:27
Tagged date                              : UTC 2016-09-22 13:33:53

Menu
ID                                       : 7
Codec ID                                 : text
Duration                                 : 1h 43mn
Language                                 : English
Encoded date                             : UTC 2016-09-22 13:33:54
Tagged date                              : UTC 2016-09-22 13:33:54
Bit rate mode                            : CBR
Menu For                                 : 1
00:00:00.000                             : 00:00:00.000
00:05:14.523                             : 00:05:14.523
00:09:49.839                             : 00:09:49.839
00:14:37.293                             : 00:14:37.293
00:18:32.944                             : 00:18:32.945
00:23:17.229                             : 00:23:17.229
00:31:21.797                             : 00:31:21.797
00:36:28.937                             : 00:36:28.937
00:41:18.559                             : 00:41:18.559
00:47:13.831                             : 00:47:13.831
00:51:38.762                             : 00:51:38.762
00:57:27.944                             : 00:57:27.944
01:01:48.663                             : 01:01:48.663
01:06:49.214                             : 01:06:49.214
01:10:11.916                             : 01:10:11.916
01:15:45.750                             : 01:15:45.750
01:21:14.495                             : 01:21:14.495
01:26:41.154                             : 01:26:41.154
01:31:17.972                             : 01:31:17.972
01:36:47.051                             : 01:36:47.051


Скриншоты:


Судная ночь 3 / The Purge: Election Year (2016) HDRip

«Один раз в году все преступления законны»
#77Прoизводство: США, Франция, Blumhouse Productions, Platinum Dunes, Universal Pictures
Жaнр: Ужасы, Боевик, Фантастика, Триллер.

Режиccер: Джеймс ДеМонако
Aктеры: Фрэнк Грилло, Элизабет Митчелл, Майкелти Уильямсон, Джозеф Джулиан Сория, Бетти Гэбриел, Терри Серпико, Эдвин Ходж, Кайл Сикор, Бэрри Нолан, Лиза Колон-Зайас

Опиcание:
Добро пожаловать в идеальное будущее, в котором Судная ночь превратилась в международный тренд. Туристы со всего мира прибывают в аэропорты Америки: ведь всего лишь раз в году здесь позволено все, главное — дожить до рассвета.


Возраст: 18+ (зрителям, достигшим 18 лет. запрещено для детей)
Рейтинг MPAA: R (лицам до 17 лет обязательно присутствие взрослого)

Продoлжительность: 01:48:47
Качество видео: HDRip
Пeревод: Дублированный - iTunes
Вид субтитров: Вшитые отключаемые
Язык субтитров: Английский

Видео: AVC/H.264 (Main@L3.1), 1024x428 (2.40:1), 2100 Кбит/сек
Аудио #1: AAC, 2 канала, 128 Кбит/сек - русский (дублированный)
Аудио #2: AAC, 2 канала, 128 Кбит/сек - английский
Код:
Код: Выделить всё
General
Complete name                            : E:\VIDEO\DILOGY\The Purge Bundle (2013-2016).576p.AAC.NNMclub\The Purge-III Election.Year.2016.576p.HDRip.x264.AAC.NNMclub.mp4
Format                                   : MPEG-4
Format profile                           : Base Media / Version 2
Codec ID                                 : mp42 (mp42/isom)
File size                                : 1.80 GiB
Duration                                 : 1h 48mn
Overall bit rate mode                    : Variable
Overall bit rate                         : 2 365 Kbps
Movie name                               : The Purge: Election Year
Performer                                : James DeMonaco
Director                                 : James DeMonaco
Actor                                    : Frank Grillo / Elizabeth Mitchell / Mykelti Williamson
Screenplay by                            : James DeMonaco
Producer                                 : Jason Blum / Michael Bay / Andrew Form / Brad Fuller / Sébastien K. Lemercier
Genre                                    : Horror
ContentType                              : Short Film
Description                              : It's been two years since Leo Barnes (Frank Grillo) stopped himself from a regrettable act of
Recorded date                            : 2016-07-01
Encoded date                             : UTC 2016-09-28 10:54:58
Tagged date                              : UTC 2016-09-28 13:15:19
Copyright                                : © 2016 Universal Studios
Cover                                    : Yes
Rating                                   : None
LongDescription                          : It has been two years since Leo Barnes (FRANK GRILLO) stopped himself from a regrettable act of revenge on Purge Night --- the 12 hours of lawlessness. This year, the annual ritual comes at the eve of a heated presidential election with the nation deeply divided between those who are pro--- and anti---Purge. As head of security for Senator Charlie Roan (ELIZABETH MITCHELL), Leo's mission is to protect her during her controversial and contested run for president. But when a betrayal forces them onto the streets of Washington, D.C. on the one night when no help is available, they must stay alive or both be sacrificed for their sins against the state.
AppleStoreCountry                        : United States
AppleStoreCatalogID                      : 1125555618
ContentRating                            : mpaa|R|400|

Video
ID                                       : 1
Format                                   : AVC
Format/Info                              : Advanced Video Codec
Format profile                           :
Format settings, CABAC                   : No
Format settings, ReFrames                : 3 frames
Codec ID                                 : avc1
Codec ID/Info                            : Advanced Video Coding
Duration                                 : 1h 48mn
Bit rate                                 : 2 100 Kbps
Width                                    : 1 024 pixels
Height                                   : 428 pixels
Display aspect ratio                     : 2.40:1
Frame rate mode                          : Variable
Frame rate                               : 23.976 (24000/1001) fps
Minimum frame rate                       : 23.810 fps
Maximum frame rate                       : 24.390 fps
Color space                              : YUV
Chroma subsampling                       : 4:2:0
Bit depth                                : 8 bits
Scan type                                : Progressive
Bits/(Pixel*Frame)                       : 0.200
Stream size                              : 1.60 GiB (89%)
Writing library                          : x264 core 148 r2721 72d53ab
Encoding settings                        : cabac=0 / ref=3 / deblock=1:-3:-3 / analyse=0x1:0x111 / me=umh / subme=7 / psy=1 / psy_rd=1.00:0.15 / mixed_ref=1 / me_range=32 / chroma_me=1 / trellis=2 / 8x8dct=0 / cqm=0 / deadzone=21,11 / fast_pskip=0 / chroma_qp_offset=-3 / threads=12 / lookahead_threads=2 / sliced_threads=0 / nr=0 / decimate=0 / interlaced=0 / bluray_compat=0 / constrained_intra=0 / bframes=3 / b_pyramid=1 / b_adapt=2 / b_bias=0 / direct=3 / weightb=1 / open_gop=0 / weightp=2 / keyint=240 / keyint_min=23 / scenecut=37 / intra_refresh=0 / rc_lookahead=50 / rc=2pass / mbtree=1 / bitrate=2100 / ratetol=1.0 / qcomp=0.60 / qpmin=0 / qpmax=69 / qpstep=4 / cplxblur=20.0 / qblur=0.5 / vbv_maxrate=14000 / vbv_bufsize=14000 / nal_hrd=none / filler=0 / ip_ratio=1.40 / aq=1:0.90
Encoded date                             : UTC 2016-09-28 10:54:58
Tagged date                              : UTC 2016-09-28 11:10:40
Color range                              : Limited
Matrix coefficients                      : BT.709
Menus                                    : 6

Audio #1
ID                                       : 2
Format                                   : AAC
Format/Info                              : Advanced Audio Codec
Format profile                           : LC
Codec ID                                 : 40
Duration                                 : 1h 48mn
Source duration                          : 1h 48mn
Bit rate mode                            : Variable
Bit rate                                 : 128 Kbps
Maximum bit rate                         : 132 Kbps
Channel(s)                               : 2 channels
Channel positions                        : Front: L R
Sampling rate                            : 48.0 KHz
Frame rate                               : 46.875 fps (1024 spf)
Compression mode                         : Lossy
Stream size                              : 99.6 MiB (5%)
Source stream size                       : 99.6 MiB (5%)
Language                                 : Russian
Default                                  : Yes
Alternate group                          : 1
Encoded date                             : UTC 2016-09-28 10:54:58
Tagged date                              : UTC 2016-09-28 11:10:40

Audio #2
ID                                       : 3
Format                                   : AAC
Format/Info                              : Advanced Audio Codec
Format profile                           : LC
Codec ID                                 : 40
Duration                                 : 1h 48mn
Source duration                          : 1h 48mn
Bit rate mode                            : Variable
Bit rate                                 : 128 Kbps
Maximum bit rate                         : 132 Kbps
Channel(s)                               : 2 channels
Channel positions                        : Front: L R
Sampling rate                            : 48.0 KHz
Frame rate                               : 46.875 fps (1024 spf)
Compression mode                         : Lossy
Stream size                              : 99.6 MiB (5%)
Source stream size                       : 99.6 MiB (5%)
Language                                 : English
Default                                  : No
Alternate group                          : 1
Encoded date                             : UTC 2016-09-28 10:54:58
Tagged date                              : UTC 2016-09-28 11:10:40

Text #1
ID                                       : 4
Format                                   : Timed Text
Muxing mode                              : sbtl
Codec ID                                 : tx3g
Duration                                 : 1h 43mn
Bit rate mode                            : Variable
Bit rate                                 : 58 bps
Stream size                              : 43.8 KiB (0%)
Language                                 : English
Default                                  : Yes
Forced                                   : No
Alternate group                          : 2
Encoded date                             : UTC 2016-09-28 10:54:58
Tagged date                              : UTC 2016-09-28 11:10:40

Text #2
ID                                       : 5
Format                                   : Timed Text
Muxing mode                              : sbtl
Codec ID                                 : tx3g
Duration                                 : 1h 43mn
Bit rate mode                            : Variable
Bit rate                                 : 65 bps
Stream size                              : 49.2 KiB (0%)
Language                                 : English
Default                                  : No
Forced                                   : No
Alternate group                          : 2
Encoded date                             : UTC 2016-09-28 10:54:58
Tagged date                              : UTC 2016-09-28 11:10:40

Menu
ID                                       : 6
Codec ID                                 : text
Duration                                 : 1h 48mn
Language                                 : English
Encoded date                             : UTC 2016-09-28 11:10:40
Tagged date                              : UTC 2016-09-28 11:10:40
Menu For                                 : 1
00:00:00.000                             : Chapter 1
00:05:47.347                             : Chapter 2
00:09:21.978                             : Chapter 3
00:17:15.618                             : Chapter 4
00:22:49.493                             : Chapter 5
00:28:43.180                             : Chapter 6
00:35:58.490                             : Chapter 7
00:41:50.508                             : Chapter 8
00:47:03.112                             : Chapter 9
00:53:30.374                             : Chapter 10
00:57:31.531                             : Chapter 11
01:02:20.820                             : Chapter 12
01:10:43.614                             : Chapter 13
01:17:32.731                             : Chapter 14
01:22:16.765                             : Chapter 15
01:27:03.093                             : Chapter 16
01:32:12.819                             : Chapter 17
01:36:17.480                             : Chapter 18
01:41:35.715                             : Chapter 19
01:43:36.752                             : Chapter 20
Bit rate mode                            : VBR

Скриншоты:


Скриншоты



Время раздачи: 24/7 (круглосуточно) (до появления первых 3-5 скачавших)
 
Не забывайте говорить Спасибо. Не уходите с раздачи!   
Торрент: Зарегистрирован [01 окт 2016, 23:50] Для скачивания .torrent
необходима регистрация
Или скачать с помощью
MediaGet
Статус:
Проверен
 
.torrent скачан: 0 раз
Хэш: c266b8dee50724ed6c5e8d66bd9272d6876ea64d
Размер: 4.81 ГБ (5 169 311 521 байт)
Стать Автором раздачи
 
 
Раздал: 100 ГБ
Скачал: 0 байт
Ратио: Seed.
Сообщения: 94021
Зарегистрирован: 09 апр 2015, 22:31


  • Похожие торренты
    Ответы
    Просмотры
    Последнее сообщение

Вернуться в Видео для мобильных устройств

Ресурс не предоставляет электронные версии произведений, а занимается лишь коллекционированием и каталогизацией ссылок, присылаемых и публикуемых на форуме нашими читателями. Если вы являетесь правообладателем какого-либо представленного материала и не желаете чтобы ссылка на него находилась в нашем каталоге, свяжитесь с нами и мы незамедлительно удалим её. Файлы для обмена на трекере предоставлены пользователями сайта, и администрация не несёт ответственности за их содержание. Просьба не заливать файлы, защищенные авторскими правами, а также файлы нелегального содержания!
cron