Звездные войны: Повстанцы / Star Wars Rebels / Сезон: 3 / Эпизоды: 1 из 21 (Саймон Кинберг / Simon Kinberg, Дэйв Филони / Dave Filoni) [2016, США, Фантастика, мультсериал, приключения, WEB-DL 1080p] Rus Sub

 
 Статистика раздачи 
Размер: 1.73 ГБ   |  Зарегистрирован: 28 сен 2016, 12:14   |   .torrent скачан: 0 раз
Сидеров: 1  [ 0 байт/сек ]     Личеров: 0  [ 0 байт/сек ]  
  

Звездные войны: Повстанцы / Star Wars Rebels / Сезон: 3 / Эпизоды: 1 из 21 (Саймон Кинберг / Simon Kinberg, Дэйв Филони / Dave Filoni) [2016, США, Фантастика, мультсериал, приключения, WEB-DL 1080p] Rus Sub

Сообщение aLaVodka » 28 сен 2016, 12:14

Звездные войны: Повстанцы / Star Wars Rebels
Третий сезон

Страна: США
Жанр: Фантастика, мультсериал, приключения
Продолжительность 1 эпизода: 43:22
Продолжительность остальных эпизодов: ~22:00
Год выпуска: 2016
Перевод: Субтитры
Русские субтитры: есть (отдельные)
Переводчик: DarthStap
Режиссёр: Саймон Кинберг / Simon Kinberg, Дэйв Филони / Dave Filoni
Роли озвучивали:
Тейлор Грэй — Эзра Бриджер
Фредди Принц младший — Кэнан Джарус
Билли Ди Уильямс — Лэндо Калриссиан
Ванесса Маршалл — Гера Синдулла
Стивен Блюм — Гаразеб Оррелиоз (Зеб)
Тия Сиркар — Сабин Врен
Дэвид Ойелово — Агент Каллус
Эшли Экштейн — Асока Тано
Джеймс Эрл Джонс — Дарт Вейдер
Описание: 2 года до Новой Надежды. Эзра взрослеет. Кейнен пытается понять свое новое предназначение. Тем временем восстание растет. Траун выходит на сцену.

Сэмпл
Качество: WEB-DL 1080p
Формат: MKV
Видео: MPEG4 Video (H264), 1920x1080, 23.976fps, 5 145 Kbps
Аудио: English (Английский), Dolby AC3, 48000Hz, 6ch, 384kbps
Субтитры: русские (отдельные), английские (вшитые)
01. Steps Into Shadow / Шаги во мрак
Код:
Код: Выделить всё
214
00:16:21,406 --> 00:16:24,976
Ты услышал мой зов. Хорошо.

215
00:16:25,185 --> 00:16:28,943
Неравновесие в тебе пробудило меня из глубокой спячки

216
00:16:28,944 --> 00:16:30,017
Неравновесие?

217
00:16:30,382 --> 00:16:35,057
Ты как безудержный ураган на этой тихой планете.

218
00:16:35,058 --> 00:16:36,629
Ты владеешь Силой.

219
00:16:37,689 --> 00:16:39,314
Но ты не джедай.

220
00:16:39,349 --> 00:16:41,825
Владею?

221
00:16:41,860 --> 00:16:44,619
Джедаи и ситы владеют Ашлой и Боганом,

222
00:16:44,654 --> 00:16:47,296
светом и тьмой.

223
00:16:47,332 --> 00:16:50,633
Я Бенду, тот кто посреди.

224
00:16:50,669 --> 00:16:52,247
Кто ты?

225
00:16:52,763 --> 00:16:55,274
Кейнен Джаррус, рыцарь-джедай

226
00:16:56,141 --> 00:17:00,905
В тебе конфликт, Кейнен Джаррус, рыцарь-джедай.

227
00:17:03,281 --> 00:17:05,366
Вот.

228
00:17:05,367 --> 00:17:08,347
Забавно.

229
00:17:09,630 --> 00:17:11,503
Осторожно...

230
00:17:13,340 --> 00:17:14,624
Опасно.

231
00:17:14,660 --> 00:17:16,559
Почему же?

232
00:17:16,594 --> 00:17:18,962
Это голокрон ситов, источник зла.

233
00:17:18,997 --> 00:17:20,438
Мой ученик использовал его,

234
00:17:20,474 --> 00:17:21,920
боюсь, он меняет его.

235
00:17:21,921 --> 00:17:24,985
Предмет не сделает тебя хорошим или плохим.

236
00:17:25,220 --> 00:17:28,730
Но тяга к могуществу, запретным знаниям

237
00:17:28,965 --> 00:17:33,544
и желание совершить добро может свести на этот путь.

238
00:17:33,545 --> 00:17:36,248
Но только ты можешь изменить себя.

Код:
Код: Выделить всё
General
Unique ID                      : 186582028177603994622728145728898081586 (0x8C5E643A56A8BDFF9BC1754B7CE82332)
Complete name                  : C:\Rebels Season 3\Star.Wars.Rebels.S03E01.Steps.Into.Shadow.1080p.WEB-DL.DD5.1.AAC2.0.H.264-YFN.mkv
Format                         : Matroska
Format version                 : Version 2
File size                      : 1.73 GiB
Duration                       : 43mn 26s
Overall bit rate               : 5 690 Kbps
Encoded date                   : UTC 2016-09-26 09:39:54
Writing application            : mkvmerge v9.4.2 ('So High') 64bit
Writing library                : libebml v1.3.4 + libmatroska v1.4.5

Video
ID                             : 1
Format                         : AVC
Format/Info                    : Advanced Video Codec
Format profile                 : [email protected]
Format settings, CABAC         : Yes
Format settings, ReFrames      : 4 frames
Codec ID                       : V_MPEG4/ISO/AVC
Duration                       : 43mn 26s
Bit rate                       : 5 145 Kbps
Width                          : 1 920 pixels
Height                         : 1 080 pixels
Display aspect ratio           : 16:9
Frame rate mode                : Constant
Frame rate                     : 23.976 (24000/1001) fps
Color space                    : YUV
Chroma subsampling             : 4:2:0
Bit depth                      : 8 bits
Scan type                      : Progressive
Bits/(Pixel*Frame)             : 0.103
Stream size                    : 1.56 GiB (90%)
Title                          : H.264
Default                        : Yes
Forced                         : No
Color range                    : Limited
Color primaries                : BT.709
Transfer characteristics       : BT.709
Matrix coefficients            : BT.709

Audio #1
ID                             : 2
Format                         : AC-3
Format/Info                    : Audio Coding 3
Mode extension                 : CM (complete main)
Format settings, Endianness    : Big
Codec ID                       : A_AC3
Duration                       : 43mn 26s
Bit rate mode                  : Constant
Bit rate                       : 384 Kbps
Channel(s)                     : 6 channels
Channel positions              : Front: L C R, Side: L R, LFE
Sampling rate                  : 48.0 KHz
Frame rate                     : 31.250 fps (1536 spf)
Compression mode               : Lossy
Stream size                    : 119 MiB (7%)
Title                          : DD5.1
Language                       : English
Default                        : Yes
Forced                         : No

Audio #2
ID                             : 3
Format                         : AAC
Format/Info                    : Advanced Audio Codec
Format profile                 : LC
Codec ID                       : A_AAC
Duration                       : 43mn 26s
Bit rate                       : 159 Kbps
Channel(s)                     : 2 channels
Channel positions              : Front: L R
Sampling rate                  : 48.0 KHz
Frame rate                     : 46.875 fps (1024 spf)
Compression mode               : Lossy
Stream size                    : 49.3 MiB (3%)
Title                          : AAC2.0
Language                       : English
Default                        : No
Forced                         : No

Text
ID                             : 4
Format                         : UTF-8
Codec ID                       : S_TEXT/UTF8
Codec ID/Info                  : UTF-8 Plain Text
Duration                       : 42mn 45s
Bit rate                       : 68 bps
Count of elements              : 696
Stream size                    : 21.5 KiB (0%)
Title                          : CC
Language                       : English
Default                        : No
Forced                         : No
 
Не забывайте говорить Спасибо. Не уходите с раздачи!   
Торрент: Зарегистрирован [28 сен 2016, 12:14] Для скачивания .torrent
необходима регистрация
Или скачать с помощью
MediaGet
Статус:
Проверен
 
.torrent скачан: 0 раз
Хэш: 3f77fa353090e7c8e28bd897fbfc705c0a5d9914
Размер: 1.73 ГБ (1 853 812 696 байт)
Стать Автором раздачи
 
 
Раздал: 100 ГБ
Скачал: 0 байт
Ратио: Seed.
Сообщения: 183101
Зарегистрирован: 09 апр 2015, 20:00


  • Похожие торренты
    Ответы
    Просмотры
    Последнее сообщение

Вернуться в Мультсериалы

Кто сейчас на конференции

Сейчас эту тему просматривают: нет зарегистрированных пользователей и гости: 1

Ресурс не предоставляет электронные версии произведений, а занимается лишь коллекционированием и каталогизацией ссылок, присылаемых и публикуемых на форуме нашими читателями. Если вы являетесь правообладателем какого-либо представленного материала и не желаете чтобы ссылка на него находилась в нашем каталоге, свяжитесь с нами и мы незамедлительно удалим её. Файлы для обмена на трекере предоставлены пользователями сайта, и администрация не несёт ответственности за их содержание. Просьба не заливать файлы, защищенные авторскими правами, а также файлы нелегального содержания!