BBC: Рождение, брак и смерть в эпоху средневековья / Medieval Lives: Birth, Marriage, Death (2013) SATRip (3 серии из 3)

 
 Статистика раздачи 
Размер: 1.5 ГБ   |  Зарегистрирован: 25 сен 2016, 18:26   |   .torrent скачан: 1 раз
Сидеров: 1  [ 0 байт/сек ]     Личеров: 0  [ 0 байт/сек ]  
  

BBC: Рождение, брак и смерть в эпоху средневековья / Medieval Lives: Birth, Marriage, Death (2013) SATRip (3 серии из 3)

Сообщение explosiveone » 25 сен 2016, 18:26

BBC: Рождение, брак и смерть в эпоху средневековья / Medieval Lives: Birth, Marriage, Death (2013) SATRip (3 серии из 3)

Телекомпания: Великобритания, BBC, Matchlight Limited
Жанр: Документальный

Участники: Хелен Кастор

Описание:
Говорят, прошлое - это иная сторона. Тогда все делали по-другому. Однако как именно по-другому средневековый мир исполнял три самых важных этапных ритуала: рождение, брак и смерть. То, каким образом, мы исполняем эти фундаментальные этапы в нашей жизни, много говорит о наших мыслях и верованиях. Для людей средневековья эта жизнь значила многое, но ещё большее значение для них имела загробная жизнь. Рай и ад были вполне реальными, а учение католической церкви формировало образ мысли и веру по всей средневековой Европе. Но к концу средневековья сама церковь претерпела изменения, и способ отправления ритуалов рождения, брака и смерти уже никогда не будет прежним.

Продолжительность: 00:58:44 + 00:59:01 + 00:58:15
Качество видео: SATRip
Перевод: Одноголосый закадровый, профессиональный

Видео: Xvid, 704x400, ~1015 kbps
Аудио: MP3, 2 ch, 128 Kbps
Код:
Код: Выделить всё
Общее
Полное имя                               : D:\Рождение брак и смерть.(3 из 3).2013.SATRip\Thumbs.db
Размер файла                             : 6,00 Кбайт

Общее
Полное имя                               : D:\Рождение брак и смерть.(3 из 3).2013.SATRip\Рождение брак и смерть.(1 из 3).Рождение.2013.SATRip.avi
Формат                                   : AVI
Формат/Информация                        : Audio Video Interleave
Размер файла                             : 484 Мбайт
Продолжительность                        : 58 м. 44 с.
Общий поток                              : 1152 Кбит/сек
Программа кодирования                    : VirtualDubMod 1.5.10.3 | [url=http://www.virtualdub-fr.org]www.virtualdub-fr.org[/url] || (build 2550/release)
Библиотека кодирования                   : VirtualDubMod build 2550/release

Видео
Идентификатор                            : 0
Формат                                   : MPEG-4 Visual
Профиль формата                          : Advanced Simple@L5
Параметр BVOP формата                    : 2
Параметр QPel формата                    : Нет
Параметр GMC формата                     : Без точки перехода
Параметр матрицы формата                 : Выборочная
Идентификатор кодека                     : XVID
Идентификатор кодека/Подсказка           : XviD
Продолжительность                        : 58 м. 44 с.
Битрейт                                  : 1015 Кбит/сек
Ширина                                   : 704 пикселя
Высота                                   : 400 пикселей
Соотношение сторон                       : 16:9
Частота кадров                           : 25,000 кадров/сек
Цветовое пространство                    : YUV
Субдискретизация насыщенности            : 4:2:0
Битовая глубина                          : 8 бит
Тип развёртки                            : Прогрессивная
Метод сжатия                             : С потерями
Бит/(Пиксели*Кадры)                      : 0.144
Размер потока                            : 426 Мбайт (88%)
Библиотека кодирования                   : XviD 73

Аудио
Идентификатор                            : 1
Формат                                   : MPEG Audio
Версия формата                           : Version 1
Профиль формата                          : Layer 3
Идентификатор кодека                     : 55
Идентификатор кодека/Подсказка           : MP3
Продолжительность                        : 58 м. 44 с.
Вид битрейта                             : Постоянный
Битрейт                                  : 128 Кбит/сек
Каналы                                   : 2 канала
Частота                                  : 48,0 КГц
Метод сжатия                             : С потерями
Размер потока                            : 53,8 Мбайт (11%)
Выравнивание                             : Соединение по промежуткам
Продолжительность промежутка             : 40  мс. (1,00 видеокадр)
Время предзагрузки промежутка            : 504  мс.
Библиотека кодирования                   : LAME3.99r
Настройки программы                      : -m s -V 4 -q 0 -lowpass 17 -b 128

Общее
Полное имя                               : D:\Рождение брак и смерть.(3 из 3).2013.SATRip\Рождение брак и смерть.(2 из 3).Брак.2013.SATRip.avi
Формат                                   : AVI
Формат/Информация                        : Audio Video Interleave
Размер файла                             : 495 Мбайт
Продолжительность                        : 59 м. 1 с.
Общий поток                              : 1172 Кбит/сек
Программа кодирования                    : VirtualDubMod 1.5.10.3 | [url=http://www.virtualdub-fr.org]www.virtualdub-fr.org[/url] || (build 2550/release)
Библиотека кодирования                   : VirtualDubMod build 2550/release

Видео
Идентификатор                            : 0
Формат                                   : MPEG-4 Visual
Профиль формата                          : Advanced Simple@L5
Параметр BVOP формата                    : 2
Параметр QPel формата                    : Нет
Параметр GMC формата                     : Без точки перехода
Параметр матрицы формата                 : Выборочная
Идентификатор кодека                     : XVID
Идентификатор кодека/Подсказка           : XviD
Продолжительность                        : 59 м. 1 с.
Битрейт                                  : 1035 Кбит/сек
Ширина                                   : 704 пикселя
Высота                                   : 400 пикселей
Соотношение сторон                       : 16:9
Частота кадров                           : 25,000 кадров/сек
Цветовое пространство                    : YUV
Субдискретизация насыщенности            : 4:2:0
Битовая глубина                          : 8 бит
Тип развёртки                            : Прогрессивная
Метод сжатия                             : С потерями
Бит/(Пиксели*Кадры)                      : 0.147
Размер потока                            : 437 Мбайт (88%)
Библиотека кодирования                   : XviD 73

Аудио
Идентификатор                            : 1
Формат                                   : MPEG Audio
Версия формата                           : Version 1
Профиль формата                          : Layer 3
Идентификатор кодека                     : 55
Идентификатор кодека/Подсказка           : MP3
Продолжительность                        : 59 м. 1 с.
Вид битрейта                             : Постоянный
Битрейт                                  : 128 Кбит/сек
Каналы                                   : 2 канала
Частота                                  : 48,0 КГц
Метод сжатия                             : С потерями
Размер потока                            : 54,0 Мбайт (11%)
Выравнивание                             : Соединение по промежуткам
Продолжительность промежутка             : 40  мс. (1,00 видеокадр)
Время предзагрузки промежутка            : 504  мс.
Библиотека кодирования                   : LAME3.99r
Настройки программы                      : -m s -V 4 -q 0 -lowpass 17 -b 128

Общее
Полное имя                               : D:\Рождение брак и смерть.(3 из 3).2013.SATRip\Рождение брак и смерть.(3 из 3).Смерть.2013.SATRip1.avi
Формат                                   : AVI
Формат/Информация                        : Audio Video Interleave
Размер файла                             : 555 Мбайт
Продолжительность                        : 58 м. 15 с.
Общий поток                              : 1331 Кбит/сек
Программа кодирования                    : VirtualDubMod 1.5.10.3 | [url=http://www.virtualdub-fr.org]www.virtualdub-fr.org[/url] || (build 2550/release)
Библиотека кодирования                   : VirtualDubMod build 2550/release

Видео
Идентификатор                            : 0
Формат                                   : MPEG-4 Visual
Профиль формата                          : Advanced Simple@L5
Параметр BVOP формата                    : 2
Параметр QPel формата                    : Нет
Параметр GMC формата                     : Без точки перехода
Параметр матрицы формата                 : Выборочная
Идентификатор кодека                     : XVID
Идентификатор кодека/Подсказка           : XviD
Продолжительность                        : 58 м. 15 с.
Битрейт                                  : 1193 Кбит/сек
Ширина                                   : 704 пикселя
Высота                                   : 400 пикселей
Соотношение сторон                       : 16:9
Частота кадров                           : 25,000 кадров/сек
Цветовое пространство                    : YUV
Субдискретизация насыщенности            : 4:2:0
Битовая глубина                          : 8 бит
Тип развёртки                            : Прогрессивная
Метод сжатия                             : С потерями
Бит/(Пиксели*Кадры)                      : 0.170
Размер потока                            : 497 Мбайт (90%)
Библиотека кодирования                   : XviD 64

Аудио
Идентификатор                            : 1
Формат                                   : MPEG Audio
Версия формата                           : Version 1
Профиль формата                          : Layer 3
Идентификатор кодека                     : 55
Идентификатор кодека/Подсказка           : MP3
Продолжительность                        : 58 м. 15 с.
Вид битрейта                             : Постоянный
Битрейт                                  : 128 Кбит/сек
Каналы                                   : 2 канала
Частота                                  : 48,0 КГц
Метод сжатия                             : С потерями
Размер потока                            : 53,3 Мбайт (10%)
Выравнивание                             : Соединение по промежуткам
Продолжительность промежутка             : 40  мс. (1,00 видеокадр)
Время предзагрузки промежутка            : 504  мс.
Библиотека кодирования                   : L3.99r
Настройки программы                      : -m s -V 4 -q 0 -lowpass 17 -b 128
1. Благополучное рождение / A Good Birth
2. Хороший брак / A Good Marriage
3. Хорошая смерть / A Good Death

Скриншоты:




Время раздачи: Пн-Пт с 16:00 до 20:00, Сб-Вс с 09:00 до 20:30 (до появления первых 3-5 скачавших)
 
Не забывайте говорить Спасибо. Не уходите с раздачи!   
Торрент: Зарегистрирован [25 сен 2016, 18:26] Для скачивания .torrent
необходима регистрация
Или скачать с помощью
MediaGet
Статус:
Проверен
 
.torrent скачан: 1 раз
Хэш: 1256a1fe071354bf69c880aeb8548c59a2e6fa09
Размер: 1.5 ГБ (1 608 255 488 байт)
Стать Автором раздачи
 
 
Раздал: 100 ГБ
Скачал: 0 байт
Ратио: Seed.
Сообщения: 92060
Зарегистрирован: 09 апр 2015, 22:31


  • Похожие торренты
    Ответы
    Просмотры
    Последнее сообщение

Вернуться в BBC

Ресурс не предоставляет электронные версии произведений, а занимается лишь коллекционированием и каталогизацией ссылок, присылаемых и публикуемых на форуме нашими читателями. Если вы являетесь правообладателем какого-либо представленного материала и не желаете чтобы ссылка на него находилась в нашем каталоге, свяжитесь с нами и мы незамедлительно удалим её. Файлы для обмена на трекере предоставлены пользователями сайта, и администрация не несёт ответственности за их содержание. Просьба не заливать файлы, защищенные авторскими правами, а также файлы нелегального содержания!
cron