BBC: Тайные правила современной жизни: Алгоритмы / BBC: The Secret Rules of Modern Living: Algorithms (2015) HDTVRip

 
 Статистика раздачи 
Размер: 796.5 МБ   |  Зарегистрирован: 25 сен 2016, 16:12   |   .torrent скачан: 0 раз
Сидеров: 1  [ 0 байт/сек ]     Личеров: 0  [ 0 байт/сек ]  
  

BBC: Тайные правила современной жизни: Алгоритмы / BBC: The Secret Rules of Modern Living: Algorithms (2015) HDTVRip

Сообщение explosiveone » 25 сен 2016, 16:12

BBC: Тайные правила современной жизни: Алгоритмы / BBC: The Secret Rules of Modern Living: Algorithms (2015) HDTVRip

Производство: Великобритания / BBC Studios
Жанр: Документальный

Ведущий: Marcus du Sautoy

Описание:
Алгоритмы знают, когда наполнять полки супермаркетов, предсказывать погоду, направлять руку хирурга, создавать произведение искусства и даже зажигать искру любви. Они повсюду, но большинство и не подозревают об их влиянии. Каковы тайные правила современной жизни?



Продолжительность: 00:58:34
Качество видео: HDTVRip
Перевод: Одноголосый закадровый, профессиональный

Видео: AVC/H.264, 720x400, ~1700 Kbps
Аудио: AC3, 2 ch, 192 Kbps, CBR
Код:
Код: Выделить всё
Общее
Полное имя                               : E:\BBC_The Secret Rules of Modern Living_Algorithms[NNMClub].avi
Формат                                   : AVI
Формат/Информация                        : Audio Video Interleave
Размер файла                             : 796 Мбайт
Продолжительность                        : 58 м.
Общий поток                              : 1901 Кбит/сек
Программа кодирования                    : VirtualDubMod 1.5.10.3 | [url=http://www.virtualdub-fr.org]www.virtualdub-fr.org[/url] || (build 2550/release)
Библиотека кодирования                   : VirtualDubMod build 2550/release

Видео
Идентификатор                            : 0
Формат                                   : MPEG-4 Visual
Профиль формата                          : Advanced [email protected]
Параметр BVOP формата                    : 1
Параметр QPel формата                    : Нет
Параметр GMC формата                     : Без точки перехода
Параметр матрицы формата                 : Default (MPEG)
Идентификатор кодека                     : XVID
Идентификатор кодека/Подсказка           : XviD
Продолжительность                        : 58 м.
Битрейт                                  : 1700 Кбит/сек
Ширина                                   : 720 пикселей
Высота                                   : 400 пикселей
Соотношение сторон                       : 16:9
Частота кадров                           : 25,000 кадров/сек
Цветовое пространство                    : YUV
Субдискретизация насыщенности            : 4:2:0
Битовая глубина                          : 8 бит
Тип развёртки                            : Прогрессивная
Метод сжатия                             : С потерями
Бит/(Пиксели*Кадры)                      : 0.236
Размер потока                            : 712 Мбайт (89%)
Библиотека кодирования                   : XviD 1.2.1 (UTC 2008-12-04)

Аудио
Идентификатор                            : 1
Формат                                   : AC-3
Формат/Информация                        : Audio Coding 3
Расширение режима                        : CM (complete main)
Параметр Endianness формата              : Big
Идентификатор кодека                     : 2000
Продолжительность                        : 58 м.
Вид битрейта                             : Постоянный
Битрейт                                  : 192 Кбит/сек
Каналы                                   : 2 канала
Расположение каналов                     : Front: L R
Частота                                  : 48,0 КГц
Частота кадров                           : 31,250 кадров/сек (1536 spf)
Метод сжатия                             : С потерями
Размер потока                            : 80,4 Мбайт (10%)
Выравнивание                             : Разделение по промежуткам
Продолжительность промежутка             : 40  мс. (1,00 видеокадр)
Время предзагрузки промежутка            : 500  мс.

Скриншоты:



Время раздачи: 24/7 (до появления первых 3-5 скачавших)
 
Не забывайте говорить Спасибо. Не уходите с раздачи!   
Торрент: Зарегистрирован [25 сен 2016, 16:12] Для скачивания .torrent
необходима регистрация
Или скачать с помощью
MediaGet
Статус:
Проверен
 
.torrent скачан: 0 раз
Хэш: a8c01562a895eccaed43edb285ede16034a897d5
Размер: 796.5 МБ (835 186 688 байт)
Стать Автором раздачи
 
 
Раздал: 100 ГБ
Скачал: 0 байт
Ратио: Seed.
Сообщения: 82646
Зарегистрирован: 09 апр 2015, 22:31


  • Похожие торренты
    Ответы
    Просмотры
    Последнее сообщение

Вернуться в BBC

Кто сейчас на конференции

Сейчас эту тему просматривают: нет зарегистрированных пользователей и гости: 1

Ресурс не предоставляет электронные версии произведений, а занимается лишь коллекционированием и каталогизацией ссылок, присылаемых и публикуемых на форуме нашими читателями. Если вы являетесь правообладателем какого-либо представленного материала и не желаете чтобы ссылка на него находилась в нашем каталоге, свяжитесь с нами и мы незамедлительно удалим её. Файлы для обмена на трекере предоставлены пользователями сайта, и администрация не несёт ответственности за их содержание. Просьба не заливать файлы, защищенные авторскими правами, а также файлы нелегального содержания!