Шоколадное царство / Choccywoccydoodah (Кристина Тейлор /Christine Taylor) (Сезон 1: серии 1-10 из 10) [2011, Документальное ТВ-сериал, TVRip]

 
 Статистика раздачи 
Размер: 3.3 ГБ   |  Зарегистрирован: 25 сен 2016, 14:16   |   .torrent скачан: 0 раз
Сидеров: 1  [ 0 байт/сек ]     Личеров: 0  [ 0 байт/сек ]  
  

Шоколадное царство / Choccywoccydoodah (Кристина Тейлор /Christine Taylor) (Сезон 1: серии 1-10 из 10) [2011, Документальное ТВ-сериал, TVRip]

Сообщение aLaVodka » 25 сен 2016, 14:16

Шоколадное царство / Choccywoccydoodah

Год выпуска: 2011
Страна: Великобритания
Жанр: Документальное ТВ-сериал
Продолжительность: ~00:23:00 (1 серия)
Перевод: Профессиональный (двухголосый закадровый)
Русские субтитры: нет

Режиссер: Кристина Тейлор /Christine Taylor

Телеканал: Стиль

Описание: Представьте себе мир, где все сделано из шоколада. В приморском городке Брайтоне (Англия) находится самый волшебный шоколадный магазин на свете, в котором команда шоколатье трудится день и ночь, чтобы создать самые экстравагантные и роскошные торты, какие вы когда-либо видели. Зайдите внутрь, будьте готовы к тому, что увиденное покорит вас и потрясет. Это не просто шоколад, это Choccywoccydoodah.

Релиз группы:

Доп. информация: Запись с канала "Стиль".

Сэмпл: https://yadi.sk/i/PsDFFiOSs7gNz

качество: TVRip
формат: AVI
Видео: 1995 Кbps, 704х400 (16:9), 25.000 fps, MPEG-4 Visual (XviD)(Advanced Simple@L5)(BVOP2)
Аудио: 128 Kbps,48.0 KHz, 2 сhannels, MPEG Audio (MP3) (Version 1)(Layer 3)(Joint stereo/MS Stereo)
S1-01. Без права на ошибку (Failure Is Not an Option)
S1-02. Как сделать торт и повлиять на людей (How to Make Cake and Influence People)
S1-03-Накладываю на тебя проклятье (подготовка к Хеллоуину) (I Put a Spell on You)
S1-04-Шоу начинается (Its Showtime!)
S1-05-Торты и Купидон (Cake and Cupids Conquer All)
S1-06 - Рождество приходит раньше (Christmas Comes Early)
S1-07 - Любящие сердца (All You Need Is Love)
S1-08 - Незабываемое событие (An Occasion to Remember)
S1-09 - Специальная доставка (Special Delivery)
S1-10 - Веселого и вкусного праздника (Eat Cake and Be Merry)
Код: Выделить всё
General
Complete name                            : D:\Шоколадное царство\S1-01-Failure Is Not an Option.avi
Format                                   : AVI
Format/Info                              : Audio Video Interleave
File size                                : 360 MiB
Duration                                 : 23mn 37s
Overall bit rate                         : 2 133 Kbps
Writing library                          : VirtualDub-MPEG2 build 24600/release

Video
ID                                       : 0
Format                                   : MPEG-4 Visual
Format profile                           : Advanced Simple@L5
Format settings, BVOP                    : 2
Format settings, QPel                    : No
Format settings, GMC                     : No warppoints
Format settings, Matrix                  : Default (MPEG)
Codec ID                                 : XVID
Codec ID/Hint                            : XviD
Duration                                 : 23mn 37s
Bit rate                                 : 1 995 Kbps
Width                                    : 704 pixels
Height                                   : 400 pixels
Display aspect ratio                     : 16:9
Frame rate                               : 25.000 fps
Color space                              : YUV
Chroma subsampling                       : 4:2:0
Bit depth                                : 8 bits
Scan type                                : Progressive
Compression mode                         : Lossy
Bits/(Pixel*Frame)                       : 0.283
Stream size                              : 337 MiB (94%)
Writing library                          : XviD 58

Audio
ID                                       : 1
Format                                   : MPEG Audio
Format version                           : Version 1
Format profile                           : Layer 3
Mode                                     : Joint stereo
Mode extension                           : MS Stereo
Codec ID                                 : 55
Codec ID/Hint                            : MP3
Duration                                 : 23mn 37s
Bit rate mode                            : Constant
Bit rate                                 : 128 Kbps
Channel(s)                               : 2 channels
Sampling rate                            : 48.0 KHz
Compression mode                         : Lossy
Stream size                              : 21.6 MiB (6%)
Alignment                                : Split accross interleaves
Interleave, duration                     : 40 ms (1.00 video frame)
Interleave, preload duration             : 500 ms
 
Не забывайте говорить Спасибо. Не уходите с раздачи!   
Торрент: Зарегистрирован [25 сен 2016, 14:16] Для скачивания .torrent
необходима регистрация
Или скачать с помощью
MediaGet
Статус:
Проверен
 
.torrent скачан: 0 раз
Хэш: 7bdf77ec823d53c63bbfccaf99924564d54e0a6f
Размер: 3.3 ГБ (3 545 019 688 байт)
Стать Автором раздачи
 
 
Раздал: 100 ГБ
Скачал: 0 байт
Ратио: Seed.
Сообщения: 188762
Зарегистрирован: 09 апр 2015, 20:00


  • Похожие торренты
    Ответы
    Просмотры
    Последнее сообщение

Вернуться в Внежанровая документалистика

Ресурс не предоставляет электронные версии произведений, а занимается лишь коллекционированием и каталогизацией ссылок, присылаемых и публикуемых на форуме нашими читателями. Если вы являетесь правообладателем какого-либо представленного материала и не желаете чтобы ссылка на него находилась в нашем каталоге, свяжитесь с нами и мы незамедлительно удалим её. Файлы для обмена на трекере предоставлены пользователями сайта, и администрация не несёт ответственности за их содержание. Просьба не заливать файлы, защищенные авторскими правами, а также файлы нелегального содержания!
cron