Слепое пятно / Слепая зона / Blindspot (2016) WEB-DL [H.264] (сезон 2, серии 1-2 из ??) LostFilm [MP4|1280x720]

 
 Статистика раздачи 
Размер: 2.22 ГБ   |  Зарегистрирован: 24 сен 2016, 18:00   |   .torrent скачан: 0 раз
Сидеров: 1  [ 0 байт/сек ]     Личеров: 0  [ 0 байт/сек ]  
  

Слепое пятно / Слепая зона / Blindspot (2016) WEB-DL [H.264] (сезон 2, серии 1-2 из ??) LostFilm [MP4|1280x720]

Сообщение explosiveone » 24 сен 2016, 18:00

Слепое пятно / Слепая зона / Blindspot (2016) WEB-DL 720p
(сезон 2, серии 1-2 из ??) LostFilm

«Piecing together her past. One tattoo at a time»
Производство: США
Жанр: триллер, драма, детектив

Режиссер: Марк Пеллингтон
Актеры: Джейми Александер, Салливан Степлтон, Одри Эспарза, Роб Браун, Марианн Жан-Батист, Аквели Роач и др.

Описание:
В центре сюжета находится потерявшая память девушка, которая оказывается в центре расследования после того, как смогла выбраться из брезентового мешка в самом центре Нью-Йорк Сити на Таймс Сквер. Не имея ни малейшего представления о том, кто она такая, девушка не знает, что обозначают многочисленные загадочные татуировки, которыми покрыто все ее тело. Когда выясняется, что татуировки являются чем-то вроде дорожной карты, к делу подключается ФБР.


Возраст: 16+ (зрителям, достигшим 16 лет)

Продолжительность: ~00:43:00 серия
Качество видео: WEB-DL
Перевод: Многоголосый закадровый, профессиональный - LostFilm
Реклама: присутствует заставка и логотип LostFilm

Видео: AVC/H.264 (High@L4.1), 1280x720 (16:9), ~2995 Кбит/сек
Аудио: AAC, 2 канала, 240 Кбит/сек - русский (многоголосый закадровый)
Код:
Код: Выделить всё
Полное имя                               : F:\Blindspot_s2_WEB-DL720p_x264_LostFilm_[NNMClub]\Blindspot.S02E01.720p.WEB.rus.LostFilm.TV.mp4
Формат                                   : MPEG-4
Профиль формата                          : Base Media
Идентификатор кодека                     : isom (isom)
Размер файла                             : 1001 Мбайт
Продолжительность                        : 43 м.
Режим общего битрейта                    : Переменный
Общий поток                              : 3240 Кбит/сек
Коллекция                                : Слепое пятно
Сезон                                    : 2
Альбом                                   : Слепое пятно, Сезон 2
Альбом/Исполнитель                       : Слепое пятно
Часть                                    : 1
Часть/Положение                          : 2
Трек                                     : Расплата подставного агента
Трек/Положение                           : 1
Исполнитель                              : Слепое пятно
Жанр                                     : Drama
Тип содержимого                          : TV Show
Дата записи                              : 2016
Дата кодирования                         : UTC 2016-09-15 21:39:53
Дата пометки                             : UTC 2016-09-15 21:39:53
Программа кодирования                    : Yamb 2.1.0.0 [http:/yamb.unite-video.com] / LostCoder
Авторское право                          : LostFilm.TV(c)
Обложка                                  : Yes
Примечание                               : В один прекрасный день на Таймс-сквер полицейские обнаруживают странную сумку с надписью «Вызывайте ФБР». Район оцепляют и стражи порядка активно готовятся к предотвращению теракта. Однако вместо бомбы внутри сумки они находят обнаженную девушку.
Part_ID                                  : 201

Видео
Идентификатор                            : 1
Формат                                   : AVC
Формат/Информация                        : Advanced Video Codec
Профиль формата                          :
Параметр CABAC формата                   : Да
Параметр ReFrames формата                : 5 кадров
Идентификатор кодека                     : avc1
Идентификатор кодека/Информация          : Advanced Video Coding
Продолжительность                        : 43 м.
Вид битрейта                             : Переменный
Битрейт                                  : 2995 Кбит/сек
Номинальный битрейт                      : 4000 Кбит/сек
Максимальный битрейт                     : 4500 Кбит/сек
Ширина                                   : 1280 пикселей
Высота                                   : 720 пикселей
Соотношение сторон                       : 16:9
Режим частоты кадров                     : Переменный
Частота кадров                           : 23,976 (24000/1001) кадра/сек
Минимальная частота кадров               : 23,974 кадра/сек
Максимальная частота кадров              : 23,981 кадра/сек
Цветовое пространство                    : YUV
Субдискретизация насыщенности            : 4:2:0
Битовая глубина                          : 8 бит
Тип развёртки                            : Прогрессивная
Бит/(Пиксели*Кадры)                      : 0.136
Размер потока                            : 926 Мбайт (92%)
Библиотека кодирования                   : x264 core 112 r1834 a51816a
Настройки программы                      : cabac=0 / ref=3 / deblock=1:0:0 / analyse=0x1:0x111 / me=hex / subme=7 / psy=1 / psy_rd=1.00:0.00 / mixed_ref=1 / me_range=16 / chroma_me=1 / trellis=1 / 8x8dct=0 / cqm=0 / deadzone=21,11 / fast_pskip=1 / chroma_qp_offset=-2 / threads=12 / sliced_threads=0 / nr=0 / decimate=1 / interlaced=0 / constrained_intra=0 / bframes=3 / b_pyramid=2 / b_adapt=1 / b_bias=0 / direct=1 / weightb=1 / open_gop=0 / weightp=2 / keyint=250 / keyint_min=25 / scenecut=40 / intra_refresh=0 / rc_lookahead=40 / rc=abr / mbtree=1 / bitrate=4000 / ratetol=1.0 / qcomp=0.60 / qpmin=0 / qpmax=51 / qpstep=4 / vbv_maxrate=5000 / vbv_bufsize=2000 / ip_ratio=1.40 / aq=1:1.00 / nal_hrd=none
Язык                                     : English
Дата пометки                             : UTC 2016-09-15 21:40:28
Цветовой диапазон                        : Limited
Основные цвета                           : BT.709
Характеристики трансфера                 : BT.709
Коэффициенты матрицы                     : BT.709

Аудио
Идентификатор                            : 2
Формат                                   : AAC
Формат/Информация                        : Advanced Audio Codec
Профиль формата                          : LC
Идентификатор кодека                     : 40
Продолжительность                        : 43 м.
Вид битрейта                             : Переменный
Битрейт                                  : 240 Кбит/сек
Максимальный битрейт                     : 303 Кбит/сек
Каналы                                   : 2 канала
Расположение каналов                     : Front: L R
Частота                                  : 48,0 КГц
Частота кадров                           : 46,875 кадров/сек (1024 spf)
Метод сжатия                             : С потерями
Размер потока                            : 74,0 Мбайт (7%)
Дата кодирования                         : UTC 2016-09-15 21:40:21
Дата пометки                             : UTC 2016-09-15 21:40:28
01 - Расплата подставного агента / In Night So Ransomed Rogue
02 - Они внушают страх / Heave Fiery Knot (They Invoke Fear)
Внимание! Раздача ведётся путём добавления новых серий; при каждом добавлении создаётся новый торрент.
Чтобы начать докачку новой серии, пользователям необходимо сделать следующее:
1. Остановить скачивание;
2. Удалить старый торрент у себя из клиента (старые серии удалять не надо);
3. Скачать новый торрент и запустить его у себя в клиенте вместо старого, при этом указать клиенту путь в старую папку куда и должно происходить скачивание новых серий. Ваш клиент при этом должен произвести хеширование (проверку) старой папки и будет докачивать только те серии, которых у вас ещё нет. Старые серии при этом не удаляются, а продолжают раздаваться! Eсли вы уже удалили старые серии, то предотвратить повторную закачку старых серий можно, отжав галочку в соответствующих местах при запуске нового торрента.

Скриншоты:




Время раздачи: 24/7 (круглосуточно) (до появления первых 3-5 скачавших)
 
Не забывайте говорить Спасибо. Не уходите с раздачи!   
Торрент: Зарегистрирован [24 сен 2016, 18:00] Для скачивания .torrent
необходима регистрация
Или скачать с помощью
MediaGet
Статус:
Проверен
 
.torrent скачан: 0 раз
Хэш: 10b0409632d56cf69ee6cf3be53b0a599cb003e5
Размер: 2.22 ГБ (2 386 974 689 байт)
Стать Автором раздачи
 
 
Раздал: 100 ГБ
Скачал: 0 байт
Ратио: Seed.
Сообщения: 94021
Зарегистрирован: 09 апр 2015, 22:31


  • Похожие торренты
    Ответы
    Просмотры
    Последнее сообщение

Вернуться в Видео для мобильных устройств

Ресурс не предоставляет электронные версии произведений, а занимается лишь коллекционированием и каталогизацией ссылок, присылаемых и публикуемых на форуме нашими читателями. Если вы являетесь правообладателем какого-либо представленного материала и не желаете чтобы ссылка на него находилась в нашем каталоге, свяжитесь с нами и мы незамедлительно удалим её. Файлы для обмена на трекере предоставлены пользователями сайта, и администрация не несёт ответственности за их содержание. Просьба не заливать файлы, защищенные авторскими правами, а также файлы нелегального содержания!
cron