Алиса в стране чудес & Алиса в Зазеркалье / Alice In Wonderland & Alice Through the Looking Glass (2010/2016) HDRip/WEB-DLRip [H.264] [MP4|1024x576|1024x552]

 
 Статистика раздачи 
Размер: 3.66 ГБ   |  Зарегистрирован: 24 сен 2016, 00:48   |   .torrent скачан: 0 раз
Сидеров: 1  [ 0 байт/сек ]     Личеров: 0  [ 0 байт/сек ]  
  

Алиса в стране чудес & Алиса в Зазеркалье / Alice In Wonderland & Alice Through the Looking Glass (2010/2016) HDRip/WEB-DLRip [H.264] [MP4|1024x576|1024x552]

Сообщение explosiveone » 24 сен 2016, 00:48

Алиса в стране чудес & Алиса в Зазеркалье / Alice In Wonderland & Alice Through the Looking Glass (2010/2016) HDRip/WEB-DLRip


Производство:
США, Великобритания, Walt Disney Pictures, Legend3D, Roth Films, Team Todd, Tim Burton Productions
Жaнр: Фэнтези, Приключения, Семейный

Режиссер: Тим Бёртон, Джеймс Бобин
Актеры: Миа Васиковска, Джонни Депп, Хелена Бонем Картер, Энн Хэтэуэй, Криспин Гловер, Саша Барон Коэн, Рис Иванс, Мэтт Лукас, Линдси Дункан

Описание:
Жизнь 19-летней Алисы Кингсли принимает неожиданный оборот. На викторианской вечеринке, устроенной в её честь, Алисе делает предложение Хэмиш, богатый, но глупый сын лорда и леди Эскот. Не дав ответа, девушка убегает и идёт за кроликом, замеченным ею на лужайке. Кролик как кролик, вот только он одет в камзол и всё время смотрит на карманные часы. Алиса гонится за Белым Кроликом через весь луг и видит, как он исчезает в кроличьей норе. Затем, неожиданно, Алиса падает туда сама, летит вниз по странному, сказочному туннелю и приземляется в круглом зале со множеством дверей. Выпив из бутылки с надписью «ВЫПЕЙ МЕНЯ», она уменьшается в размерах, а откусив от пирожного с надписью «СЪЕШЬ МЕНЯ» — вырастает. Наконец, миновав череду злоключений, Алиса попадает через одну из дверей в чудесный фантастический мир, который его обитатели называют Подземной страной...

Продолжительность: 01:48:24 | 01:53:19
Перевод: Дублированный - Blu-ray CEE, iTunes
Вид субтитров: Вшитые отключаемые
Язык субтитров: Русский, Английский
Качество видео: HDRip | WEB-DLRip

Видео: AVC/H.264 (Main@L3.1), 1024x576 | 1024x552, ~ 2000 Кбит/сек
Аудио #1: AAC, 2 канала, 128 Кбит/сек - русский (дублированный)
Аудио #2: AAC, 2 канала, 128 Кбит/сек - английский

Алиса в стране чудес / Alice in Wonderland (2010) HDRip

«Вы приглашены на безумно важное событие»
Прoизводство: США, Walt Disney Pictures, Roth Films, Team Todd, Tim Burton Productions
Жaнр: Фэнтези, Приключения, Семейный

Режиссeр: Тим Бёртон
Актеры: Миа Васиковска, Джонни Депп, Хелена Бонем Картер, Энн Хэтэуэй, Криспин Гловер, Мэтт Лукас, Майкл Шин, Стивен Фрай, Барбара Уиндсор

Описание:
Жизнь 19-летней Алисы Кингсли принимает неожиданный оборот. На викторианской вечеринке, устроенной в её честь, Алисе делает предложение Хэмиш, богатый, но глупый сын лорда и леди Эскот. Не дав ответа, девушка убегает и идёт за кроликом, замеченным ею на лужайке. Кролик как кролик, вот только он одет в камзол и всё время смотрит на карманные часы. Алиса гонится за Белым Кроликом через весь луг и видит, как он исчезает в кроличьей норе. Затем, неожиданно, Алиса падает туда сама, летит вниз по странному, сказочному туннелю и приземляется в круглом зале со множеством дверей. Выпив из бутылки с надписью «ВЫПЕЙ МЕНЯ», она уменьшается в размерах, а откусив от пирожного с надписью «СЪЕШЬ МЕНЯ» — вырастает. Наконец, миновав череду злоключений, Алиса попадает через одну из дверей в чудесный фантастический мир, который его обитатели называют Подземной страной...


Возраст: 12+ (зрителям, достигшим 12 лет)
Рейтинг MPAA: PG (рекомендуется присутствие родителей)

Продолжительноcть: 01:48:24
Качество видео: HDRip
Пeревод: Дублированный - Blu-ray CEE
Вид субтитров: Вшитые отключаемые
Язык субтитров: Русский, Английский

Видео: AVC/H.264 (Main@L3.1), 1024x576 (16:9), 2100 Кбит/сек
Аудио #1: AAC, 2 канала, 128 Кбит/сек - русский (дублированный)
Аудио #2: AAC, 2 канала, 128 Кбит/сек - английский
Код:
Код: Выделить всё
General
Complete name                            : C:\DGI\Alice In Wonderland & Alice Through the Looking Glass (2010-2016).576p.AAC.NNMclub\Alice in Wonderland.2010.576p.HDRip.AAC.x264.NNMclub.mp4
Format                                   : MPEG-4
Format profile                           : Base Media / Version 2
Codec ID                                 : mp42 (mp42/isom)
File size                                : 1.79 GiB
Duration                                 : 1h 48mn
Overall bit rate mode                    : Variable
Overall bit rate                         : 2 364 Kbps
Movie name                               : Alice In Wonderland
Performer                                : Tim Burton
Director                                 : Tim Burton
Actor                                    : Johnny Depp / Anne Hathaway / Helen Bonham Carter / Crispin Glover / Mia Wasikowska
Screenplay by                            : Linda Woolverton
Producer                                 : Joe Roth / Jennifer Todd / Suzanne Todd / Richard D. Zanuck
Genre                                    : Action & Adventure
ContentType                              : Short Film
Description                              : Tumble down the rabbit hole with Alice for a fantastical adventure! Inviting and magical, Alice In Wonderland is an imaginative new twist on one of the most beloved stories of all time. Alice (Mia Wasikowska), now 19 years old, returns to the whimsical world she first entered as a child and embarks on a journey to discover her true destiny. This Wonderland is a world beyond your imagination and unlike anything you've seen before. The extraordinary characters you've loved come to life richer and more colorful than ever. There's the Mad Hatter (Johnny Depp), the White Queen (Anne Hathaway), the Red Queen (Helena Bonham Carter), the White Rabbit (Michael Sheen) and more. A triumphant cinematic experience, Alice In Wonderland is an incredible feast for your eyes, ears and heart that will captivate audiences of all sizes.
Recorded date                            : 2010-03-05
Encoded date                             : UTC 2016-09-23 06:54:54
Tagged date                              : UTC 2016-09-23 07:21:48
Copyright                                : © 2010 Disney
Cover                                    : Yes
Rating                                   : None
LongDescription                          : Tumble down the rabbit hole with Alice for a fantastical adventure! Inviting and magical, Alice In Wonderland is an imaginative new twist on one of the most beloved stories of all time. Alice (Mia Wasikowska), now 19 years old, returns to the whimsical world she first entered as a child and embarks on a journey to discover her true destiny. This Wonderland is a world beyond your imagination and unlike anything you've seen before. The extraordinary characters you've loved come to life richer and more colorful than ever. There's the Mad Hatter (Johnny Depp), the White Queen (Anne Hathaway), the Red Queen (Helena Bonham Carter), the White Rabbit (Michael Sheen) and more. A triumphant cinematic experience, Alice In Wonderland is an incredible feast for your eyes, ears and heart that will captivate audiences of all sizes.
AppleStoreCountry                        : United States
AppleStoreCatalogID                      : 359352694
ContentRating                            : mpaa|PG|200|

Video
ID                                       : 1
Format                                   : AVC
Format/Info                              : Advanced Video Codec
Format profile                           :
Format settings, CABAC                   : No
Format settings, ReFrames                : 3 frames
Codec ID                                 : avc1
Codec ID/Info                            : Advanced Video Coding
Duration                                 : 1h 48mn
Bit rate                                 : 2 100 Kbps
Width                                    : 1 024 pixels
Height                                   : 576 pixels
Display aspect ratio                     : 16:9
Frame rate mode                          : Variable
Frame rate                               : 23.976 (24000/1001) fps
Minimum frame rate                       : 23.810 fps
Maximum frame rate                       : 24.390 fps
Color space                              : YUV
Chroma subsampling                       : 4:2:0
Bit depth                                : 8 bits
Scan type                                : Progressive
Bits/(Pixel*Frame)                       : 0.148
Stream size                              : 1.59 GiB (89%)
Writing library                          : x264 core 148 r2705+54 9f484c1 t_mod_Custom [8-bit@all X86]
Encoding settings                        : cabac=0 / ref=3 / deblock=1:-1:-1 / analyse=0x1:0x131 / me=umh / subme=7 / psy=1 / fade_compensate=0.00 / psy_rd=1.00:0.15 / mixed_ref=1 / me_range=32 / chroma_me=1 / trellis=2 / 8x8dct=0 / cqm=0 / deadzone=21,11 / fast_pskip=0 / chroma_qp_offset=-3 / threads=12 / lookahead_threads=2 / sliced_threads=0 / nr=0 / decimate=0 / interlaced=0 / bluray_compat=0 / constrained_intra=0 / fgo=0 / bframes=3 / b_pyramid=1 / b_adapt=2 / b_bias=0 / direct=3 / weightb=1 / open_gop=0 / weightp=2 / keyint=240 / keyint_min=23 / scenecut=40 / intra_refresh=0 / rc_lookahead=50 / rc=2pass / mbtree=1 / bitrate=2100 / ratetol=1.0 / qcomp=0.60 / qpmin=0:0:0 / qpmax=69:69:69 / qpstep=4 / cplxblur=20.0 / qblur=0.5 / vbv_maxrate=14000 / vbv_bufsize=14000 / nal_hrd=none / filler=0 / ip_ratio=1.40 / aq=3:1.00 / aq-sensitivity=10.00 / aq-factor=1.00:1.00:1.00 / aq2=1:0.80 / aq2-sensitivity=13.00 / aq2-factor=1.00:1.00:1.00 / aq3=4:[0.50:0.50]:[0.50:0.50]:[0.50:0.50]:[0.50:0.50] / aq3-sensitivity=10.00 / aq3-factor=[1.00:1.00]:[1.00:1.00]:[1.00:1.00] / aq3-boundary=192:64:24
Encoded date                             : UTC 2016-09-23 06:54:54
Tagged date                              : UTC 2016-09-23 07:11:09
Color range                              : Limited
Matrix coefficients                      : BT.709

Audio #1
ID                                       : 2
Format                                   : AAC
Format/Info                              : Advanced Audio Codec
Format profile                           : LC
Codec ID                                 : 40
Duration                                 : 1h 48mn
Source duration                          : 1h 48mn
Bit rate mode                            : Variable
Bit rate                                 : 128 Kbps
Maximum bit rate                         : 132 Kbps
Channel(s)                               : 2 channels
Channel positions                        : Front: L R
Sampling rate                            : 48.0 KHz
Frame rate                               : 46.875 fps (1024 spf)
Compression mode                         : Lossy
Stream size                              : 99.4 MiB (5%)
Source stream size                       : 99.4 MiB (5%)
Language                                 : Russian
Default                                  : Yes
Alternate group                          : 1
Encoded date                             : UTC 2016-09-23 06:54:54
Tagged date                              : UTC 2016-09-23 07:11:09

Audio #2
ID                                       : 3
Format                                   : AAC
Format/Info                              : Advanced Audio Codec
Format profile                           : LC
Codec ID                                 : 40
Duration                                 : 1h 48mn
Source duration                          : 1h 48mn
Bit rate mode                            : Variable
Bit rate                                 : 128 Kbps
Maximum bit rate                         : 133 Kbps
Channel(s)                               : 2 channels
Channel positions                        : Front: L R
Sampling rate                            : 48.0 KHz
Frame rate                               : 46.875 fps (1024 spf)
Compression mode                         : Lossy
Stream size                              : 99.4 MiB (5%)
Source stream size                       : 99.4 MiB (5%)
Language                                 : English
Default                                  : No
Alternate group                          : 1
Encoded date                             : UTC 2016-09-23 06:54:54
Tagged date                              : UTC 2016-09-23 07:11:09

Text #1
ID                                       : 4
Format                                   : Timed Text
Muxing mode                              : sbtl
Codec ID                                 : tx3g
Duration                                 : 1h 41mn
Bit rate mode                            : Variable
Bit rate                                 : 75 bps
Stream size                              : 55.8 KiB (0%)
Language                                 : Russian
Default                                  : Yes
Forced                                   : No
Alternate group                          : 2
Encoded date                             : UTC 2016-09-23 06:54:54
Tagged date                              : UTC 2016-09-23 07:11:09

Text #2
ID                                       : 5
Format                                   : Timed Text
Muxing mode                              : sbtl
Codec ID                                 : tx3g
Duration                                 : 1h 47mn
Bit rate mode                            : Variable
Bit rate                                 : 51 bps
Stream size                              : 40.2 KiB (0%)
Language                                 : English
Default                                  : No
Forced                                   : No
Alternate group                          : 2
Encoded date                             : UTC 2016-09-23 06:54:54
Tagged date                              : UTC 2016-09-23 07:11:10

Скриншоты:


Алиса в Зазеркалье / Alice Through the Looking Glass (2016) WEB-DLRip

«Весна - самое время сойти с ума»
#77Прoизводство: США, Великобритания, Walt Disney Pictures, Roth Films, Team Todd
Жaнр: Фэнтези, Приключения, Семейный

Режиcceр: Джеймс Бобин
Aктеры: Миа Васиковска, Джонни Депп, Хелена Бонем Картер, Энн Хэтэуэй, Саша Барон Коэн, Рис Иванс, Мэтт Лукас, Линдси Дункан, Лео Билл, Джеральдин Джеймс

Опиcание:
На этот раз главной героине предстоит отправиться в путешествие во времени, полное неожиданностей и ярких открытий, чтобы спасти своего друга, Безумного Шляпника.


Возраст: 12+ (зрителям, достигшим 12 лет)
Рейтинг MPAA: PG (рекомендуется присутствие родителей)

Продoлжительность: 01:53:19
Качество видео: WEB-DLRip
Пeревод: Дублированный - (iTunes)
Вид субтитров: Вшитые отключаемые
Язык субтитров: Русский, Английский

Видео: AVC/H.264 (Main@L3.1), 1024x552 (1.85:1), 2100 Кбит/сек
Аудио #1: AAC, 2 канала, 128 Кбит/сек - русский (дублированный)
Аудио #2: AAC, 2 канала, 128 Кбит/сек - английский
Код:
Код: Выделить всё
General
Complete name                            : C:\DGI\Alice In Wonderland & Alice Through the Looking Glass (2010-2016).576p.AAC.NNMclub\Alice Through the Looking Glass.2016.576p.WEB-DLRip.AAC.x264.NNMclub.mp4
Format                                   : MPEG-4
Format profile                           : Base Media / Version 2
Codec ID                                 : mp42 (mp42/isom)
File size                                : 1.87 GiB
Duration                                 : 1h 53mn
Overall bit rate mode                    : Variable
Overall bit rate                         : 2 364 Kbps
Movie name                               : Alice Through the Looking Glass (2016)
Performer                                : James Bobin
Director                                 : James Bobin
Actor                                    : Johnny Depp / Anne Hathaway / Mia Wasikowska / Matt Lucas / Rhys Ifans / Helena Bonham Carter / Sacha Baron Cohen / Lindsay Duncan / Leo Bill / Geraldine James / Ed Speleers / Andrew Scott / Richard Armitage / Hattie Morahan / Alan Rickman / Stephen Fry / Michael Sheen / Timothy Spall / Barbara Windsor / Matt Vogel / Paul Whitehouse / Paul Hunter / Wally Wingert / Meera Syal / Louis Serkis / Joanna Bobin / Amelia Crouch / Leilah de Meza / Simone Kirby / Joe Hurst / Siobhan Redmond / Oliver Hawkes / Frederick Warder / Eve Hedderwick Turner / Tom Godwin / Daniel Hoffman-Gill / Jamie Baughan / Matt Wilman / Siobhan McSweeney / Owain Rhys Davies / Edward Petherbridge / Richard Syms / Neil Edmond / Bill Thomas / Craig Mather
Screenplay by                            : Linda Woolverton
Producer                                 : Joe Roth / Suzanne Todd / Jennifer Todd / Tim Burton
Genre                                    : Action & Adventure
ContentType                              : Short Film
Description                              : Alice (Mia Wasikowska) has spent the past few years following in her father’s footsteps and sailing
Recorded date                            : 2016-05-27
Encoded date                             : UTC 2016-09-23 19:44:58
Tagged date                              : UTC 2016-09-23 20:13:39
Copyright                                : © 2016 Disney Enterprises, Inc.
Cover                                    : Yes
Rating                                   : None
LongDescription                          : Alice (Mia Wasikowska) has spent the past few years following in her father’s footsteps and sailing the high seas. Upon her return to London, she comes across a magical looking glass and returns to the fantastical realm of Underland and her friends. There she discovers that the Mad Hatter (Johnny Depp) has lost his Muchness, so the White Queen (Anne Hathaway) sends her on a quest to borrow the Chronosphere, a metallic globe inside the chamber of the Grand Clock that powers all time. Returning to the past, she embarks on a perilous race to save the Hatter before time runs out.
AppleStoreCountry                        : United States
AppleStoreCatalogID                      : 1115479244
ContentRating                            : mpaa|PG|200|

Video
ID                                       : 1
Format                                   : AVC
Format/Info                              : Advanced Video Codec
Format profile                           :
Format settings, CABAC                   : No
Format settings, ReFrames                : 3 frames
Codec ID                                 : avc1
Codec ID/Info                            : Advanced Video Coding
Duration                                 : 1h 53mn
Bit rate                                 : 2 100 Kbps
Width                                    : 1 024 pixels
Height                                   : 552 pixels
Display aspect ratio                     : 1.85:1
Frame rate mode                          : Variable
Frame rate                               : 23.976 (24000/1001) fps
Minimum frame rate                       : 23.810 fps
Maximum frame rate                       : 24.390 fps
Color space                              : YUV
Chroma subsampling                       : 4:2:0
Bit depth                                : 8 bits
Scan type                                : Progressive
Bits/(Pixel*Frame)                       : 0.155
Stream size                              : 1.66 GiB (89%)
Writing library                          : x264 core 148 r2705+54 9f484c1 t_mod_Custom [8-bit@all X86]
Encoding settings                        : cabac=0 / ref=3 / deblock=1:-1:-1 / analyse=0x1:0x131 / me=umh / subme=7 / psy=1 / fade_compensate=0.00 / psy_rd=1.00:0.10 / mixed_ref=1 / me_range=32 / chroma_me=1 / trellis=2 / 8x8dct=0 / cqm=0 / deadzone=21,11 / fast_pskip=0 / chroma_qp_offset=-3 / threads=12 / lookahead_threads=2 / sliced_threads=0 / nr=0 / decimate=0 / interlaced=0 / bluray_compat=0 / constrained_intra=0 / fgo=0 / bframes=3 / b_pyramid=1 / b_adapt=2 / b_bias=0 / direct=3 / weightb=1 / open_gop=0 / weightp=2 / keyint=240 / keyint_min=23 / scenecut=40 / intra_refresh=0 / rc_lookahead=50 / rc=2pass / mbtree=1 / bitrate=2100 / ratetol=1.0 / qcomp=0.60 / qpmin=0:0:0 / qpmax=69:69:69 / qpstep=4 / cplxblur=20.0 / qblur=0.5 / vbv_maxrate=14000 / vbv_bufsize=14000 / nal_hrd=none / filler=0 / ip_ratio=1.40 / aq=3:0.90 / aq-sensitivity=10.00 / aq-factor=1.00:1.00:1.00 / aq2=1:0.90 / aq2-sensitivity=13.00 / aq2-factor=1.00:1.00:1.00 / aq3=4:[0.50:0.50]:[0.50:0.50]:[0.50:0.50]:[0.50:0.50] / aq3-sensitivity=10.00 / aq3-factor=[1.00:1.00]:[1.00:1.00]:[1.00:1.00] / aq3-boundary=192:64:24
Encoded date                             : UTC 2016-09-23 19:44:58
Tagged date                              : UTC 2016-09-23 19:50:40
Color range                              : Limited
Matrix coefficients                      : BT.709
Menus                                    : 6

Audio #1
ID                                       : 2
Format                                   : AAC
Format/Info                              : Advanced Audio Codec
Format profile                           : LC
Codec ID                                 : 40
Duration                                 : 1h 53mn
Source duration                          : 1h 53mn
Bit rate mode                            : Variable
Bit rate                                 : 128 Kbps
Maximum bit rate                         : 132 Kbps
Channel(s)                               : 2 channels
Channel positions                        : Front: L R
Sampling rate                            : 48.0 KHz
Frame rate                               : 46.875 fps (1024 spf)
Compression mode                         : Lossy
Stream size                              : 104 MiB (5%)
Source stream size                       : 104 MiB (5%)
Language                                 : Russian
Default                                  : Yes
Alternate group                          : 1
Encoded date                             : UTC 2016-09-23 19:44:58
Tagged date                              : UTC 2016-09-23 19:50:40

Audio #2
ID                                       : 3
Format                                   : AAC
Format/Info                              : Advanced Audio Codec
Format profile                           : LC
Codec ID                                 : 40
Duration                                 : 1h 52mn
Source duration                          : 1h 52mn
Bit rate mode                            : Variable
Bit rate                                 : 128 Kbps
Maximum bit rate                         : 132 Kbps
Channel(s)                               : 2 channels
Channel positions                        : Front: L R
Sampling rate                            : 48.0 KHz
Frame rate                               : 46.875 fps (1024 spf)
Compression mode                         : Lossy
Stream size                              : 103 MiB (5%)
Source stream size                       : 103 MiB (5%)
Language                                 : English
Default                                  : No
Alternate group                          : 1
Encoded date                             : UTC 2016-09-23 19:44:58
Tagged date                              : UTC 2016-09-23 19:50:40

Text #1
ID                                       : 5
Format                                   : Timed Text
Muxing mode                              : sbtl
Codec ID                                 : tx3g
Duration                                 : 1h 42mn
Bit rate mode                            : Variable
Bit rate                                 : 51 bps
Stream size                              : 38.5 KiB (0%)
Language                                 : English
Default                                  : No
Forced                                   : No
Alternate group                          : 2
Encoded date                             : UTC 2016-09-23 19:44:58
Tagged date                              : UTC 2016-09-23 19:50:41

Text #2
ID                                       : 7
Format                                   : Timed Text
Muxing mode                              : sbtl
Codec ID                                 : tx3g
Duration                                 : 1h 45mn
Bit rate mode                            : Variable
Bit rate                                 : 79 bps
Stream size                              : 61.3 KiB (0%)
Language                                 : Russian
Default                                  : Yes
Forced                                   : No
Alternate group                          : 2
Encoded date                             : UTC 2016-09-23 20:13:31
Tagged date                              : UTC 2016-09-23 20:13:31

Menu
ID                                       : 6
Codec ID                                 : text
Duration                                 : 1h 53mn
Language                                 : English
Encoded date                             : UTC 2016-09-23 19:50:41
Tagged date                              : UTC 2016-09-23 19:50:41
Menu For                                 : 1
00:00:00.000                             : Navigating The Wonder
00:04:32.000                             : Return Home
00:07:24.000                             : Canceled Plans
00:12:07.000                             : Through The Looking Glass
00:16:39.000                             : Old Friends
00:22:47.000                             : Chronosphere
00:24:59.000                             : Time's Castle
00:30:17.000                             : The Grand Clock
00:35:30.000                             : Arrival Of The Red Queen
00:41:32.000                             : Ocean Of Time
00:45:20.000                             : Coronation
00:51:35.000                             : Warning The Hatter
00:54:11.000                             : Tea Party With Time
00:57:40.000                             : Tart Trouble
01:04:18.000                             : "The Stroke Of Six"
01:09:18.000                             : Escape From The Asylum
01:12:45.000                             : Horunvendush Day
01:18:07.000                             : Red Queen's Lair
01:23:20.000                             : Changing The Past
01:27:34.000                             : Running Out Of Time
01:32:16.000                             : Family Reunion
01:36:40.000                             : Goodbyes
01:40:13.000                             : Setting Sail
01:43:14.000                             : End Credits
Bit rate mode                            : VBR

Скриншоты:


Скриншоты



Время раздачи: 24/7 (круглосуточно) (до появления первых 3-5 скачавших)
 
Не забывайте говорить Спасибо. Не уходите с раздачи!   
Торрент: Зарегистрирован [24 сен 2016, 00:48] Для скачивания .torrent
необходима регистрация
Или скачать с помощью
MediaGet
Статус:
Проверен
 
.torrent скачан: 0 раз
Хэш: b0f3ed7829afd897d13ab106f24b19958c9ee727
Размер: 3.66 ГБ (3 933 763 583 байт)
Стать Автором раздачи
 
 
Раздал: 100 ГБ
Скачал: 0 байт
Ратио: Seed.
Сообщения: 94059
Зарегистрирован: 09 апр 2015, 22:31


  • Похожие торренты
    Ответы
    Просмотры
    Последнее сообщение

Вернуться в Видео для мобильных устройств

Ресурс не предоставляет электронные версии произведений, а занимается лишь коллекционированием и каталогизацией ссылок, присылаемых и публикуемых на форуме нашими читателями. Если вы являетесь правообладателем какого-либо представленного материала и не желаете чтобы ссылка на него находилась в нашем каталоге, свяжитесь с нами и мы незамедлительно удалим её. Файлы для обмена на трекере предоставлены пользователями сайта, и администрация не несёт ответственности за их содержание. Просьба не заливать файлы, защищенные авторскими правами, а также файлы нелегального содержания!
cron