Новые хакеры / The New Hackers (2011) SATRip

 
 Статистика раздачи 
Размер: 590.49 МБ   |  Зарегистрирован: 23 сен 2016, 18:22   |   .torrent скачан: 0 раз
Сидеров: 1  [ 0 байт/сек ]     Личеров: 0  [ 0 байт/сек ]  
  

Новые хакеры / The New Hackers (2011) SATRip

Сообщение explosiveone » 23 сен 2016, 18:22

Новые хакеры / The New Hackers (2011) SATRip

Телекомпания: Франция, Tac Presse, Available
Жанр: Документальный

Описание:
Вирусы, спам и другие махинации в Интернете — наш повседневный опыт. Благодаря фильму Стефана Жирара у нас есть возможность посмотреть на ситуацию с другой стороны. Снятые скрытой камерой, молодые хакеры с закрытыми лицами рассказывают и показывают,что и как они взламывают, каковы их побуждения, как они организованы. Свежее кино о свежем поколении, которое выбирает взлом. Первокурсники, школьники и просто двоечники-недоучки легко обходят сложные системы защиты и делают закрытую информацию всеобщим достоянием. Для одних это игра, для других способ в 17 лет зарабатывать десятки тысяч, для третьих, например, участников знаменитого движения «Анонимные» — некая форма общественного контроля. Съемочная группа внедряется в хакерскую среду и узнает небезынтересные вещи о том, чем они руководствуются, как организуются и что о себе думают.

Продолжительность: 00:53:20
Качество видео: SATRip
Перевод: Двуголосый закадровый, профессиональный

Видео: Xvid, 704x400, ~1410 kbps
Аудио: MP3, 2 ch, 128 Kbps
Код:
Код: Выделить всё
Общее
Полное имя                               : D:\Novye.hakery.2011.XviD.SATRip_.avi
Формат                                   : AVI
Формат/Информация                        : Audio Video Interleave
Размер файла                             : 590 Мбайт
Продолжительность                        : 53 м. 20 с.
Общий поток                              : 1548 Кбит/сек
Программа кодирования                    : VirtualDubMod 1.5.10.2 (build 2540/release)
Библиотека кодирования                   : VirtualDubMod build 2540/release

Видео
Идентификатор                            : 0
Формат                                   : MPEG-4 Visual
Профиль формата                          : Advanced Simple@L5
Параметр BVOP формата                    : 1
Параметр QPel формата                    : Нет
Параметр GMC формата                     : Без точки перехода
Параметр матрицы формата                 : Default (MPEG)
Идентификатор кодека                     : XVID
Идентификатор кодека/Подсказка           : XviD
Продолжительность                        : 53 м. 20 с.
Битрейт                                  : 1410 Кбит/сек
Ширина                                   : 704 пикселя
Высота                                   : 400 пикселей
Соотношение сторон                       : 16:9
Частота кадров                           : 25,000 кадров/сек
Цветовое пространство                    : YUV
Субдискретизация насыщенности            : 4:2:0
Битовая глубина                          : 8 бит
Тип развёртки                            : Прогрессивная
Метод сжатия                             : С потерями
Бит/(Пиксели*Кадры)                      : 0.200
Размер потока                            : 538 Мбайт (91%)
Библиотека кодирования                   : XviD 1.2.1 (UTC 2008-12-04)

Аудио
Идентификатор                            : 1
Формат                                   : MPEG Audio
Версия формата                           : Version 1
Профиль формата                          : Layer 3
Идентификатор кодека                     : 55
Идентификатор кодека/Подсказка           : MP3
Продолжительность                        : 53 м. 20 с.
Вид битрейта                             : Постоянный
Битрейт                                  : 128 Кбит/сек
Каналы                                   : 2 канала
Частота                                  : 48,0 КГц
Метод сжатия                             : С потерями
Размер потока                            : 48,8 Мбайт (8%)
Выравнивание                             : Соединение по промежуткам
Продолжительность промежутка             : 40  мс. (1,00 видеокадр)
Время предзагрузки промежутка            : 504  мс.
Библиотека кодирования                   : LAME3.98r
Настройки программы                      : -m s -V 4 -q 2 -lowpass 17 -b 128

Скриншоты:




Время раздачи: Пн-Пт с 16:00 до 20:00, Сб-Вс с 09:00 до 20:30 (до появления первых 3-5 скачавших)
 
Не забывайте говорить Спасибо. Не уходите с раздачи!   
Торрент: Зарегистрирован [23 сен 2016, 18:22] Для скачивания .torrent
необходима регистрация
Или скачать с помощью
MediaGet
Статус:
Проверен
 
.torrent скачан: 0 раз
Хэш: 3aeb3f34a85dcec304c8333cd2250b7d1a9428d9
Размер: 590.49 МБ (619 177 984 байт)
Стать Автором раздачи
 
 
Раздал: 100 ГБ
Скачал: 0 байт
Ратио: Seed.
Сообщения: 101416
Зарегистрирован: 09 апр 2015, 22:31


  • Похожие торренты
    Ответы
    Просмотры
    Последнее сообщение

Вернуться в Интересно обо всем

Ресурс не предоставляет электронные версии произведений, а занимается лишь коллекционированием и каталогизацией ссылок, присылаемых и публикуемых на форуме нашими читателями. Если вы являетесь правообладателем какого-либо представленного материала и не желаете чтобы ссылка на него находилась в нашем каталоге, свяжитесь с нами и мы незамедлительно удалим её. Файлы для обмена на трекере предоставлены пользователями сайта, и администрация не несёт ответственности за их содержание. Просьба не заливать файлы, защищенные авторскими правами, а также файлы нелегального содержания!
cron