BBC: Нюрнбергский процесс. Нацистские преступники на скамье подсудимых / Nuremberg: Nazis on Trial (2006) SATRip (3 серии из 3)

 
 Статистика раздачи 
Размер: 1.86 ГБ   |  Зарегистрирован: 23 сен 2016, 18:21   |   .torrent скачан: 1 раз
Сидеров: 1  [ 0 байт/сек ]     Личеров: 0  [ 0 байт/сек ]  
  

BBC: Нюрнбергский процесс. Нацистские преступники на скамье подсудимых / Nuremberg: Nazis on Trial (2006) SATRip (3 серии из 3)

Сообщение explosiveone » 23 сен 2016, 18:21

BBC: Нюрнбергский процесс. Нацистские преступники на скамье подсудимых / Nuremberg: Nazis on Trial (2006) SATRip (3 серии из 3)

Телекомпания: Великобритания, США, BBC, Discovery Channel
Жанр: Документальный

Участники: Роберт Пью, Адам Годли, Колин Стинтон, Тим Вудворд, Ричард Дерден, Мэттью Макфейден, Бен Кросс, Стюарт Банс, Энтони Валентайн, Руперт Ванситтарт

Описание:
Связав воедино повествование и драматическую реконструкцию событий, документальный сериал рассказывает о трех ключевых фигурах нацистской Германии: Германе Геринге, Альберте Шпеере и Рудольфе Гессе. Обширные архивные документы из Европы и Америки, ранее неопубликованные материалы, включающие показания самих заключенных, возрождают на экране фигуры военных преступников. Программа прослеживает их судьбу с момента задержания до вынесения приговора и последовавших за этим событий. Геринг покончил жизнь самоубийством, Шпеер провел 20 лет за решеткой, Рудольф Хесс был приговорен к пожизненному заключению. Ключевые фигуры из лагеря союзников, воспоминания судей и обвинителей Нюрнбергского процесса, психологов и тюремных надзирателей позволяют представить, как проходил самый грандиозный судебный процесс в истории.



Продолжительность: 00:58:58 + 00:57:16 + 00:57:49
Качество видео: SATRip
Перевод: Одноголосый закадровый, профессиональный

Видео: Xvid, 704x400, ~1359 Kbps
Аудио: MP3, 2 ch, 128 Kbps
Код:
Код: Выделить всё
Общее
Полное имя                               : D:\Njurnb.process.Naci.pre-pniki.na.skame.pod-yh.(1-3.serii.iz.3).2006.XviD.SATRip\Njurnb.process.Naci.pre-pniki.na.skame.pod-yh.(1.serija.iz.3).2006.XviD.SATRipV.avi
Формат                                   : AVI
Формат/Информация                        : Audio Video Interleave
Размер файла                             : 631 Мбайт
Продолжительность                        : 58 м. 58 с.
Общий поток                              : 1497 Кбит/сек
Программа кодирования                    : VirtualDubMod 1.5.10.2 (build 2540/release)
Библиотека кодирования                   : VirtualDubMod build 2540/release

Видео
Идентификатор                            : 0
Формат                                   : MPEG-4 Visual
Профиль формата                          : Advanced Simple@L5
Параметр BVOP формата                    : 1
Параметр QPel формата                    : Нет
Параметр GMC формата                     : Без точки перехода
Параметр матрицы формата                 : Default (MPEG)
Идентификатор кодека                     : XVID
Идентификатор кодека/Подсказка           : XviD
Продолжительность                        : 58 м. 58 с.
Битрейт                                  : 1359 Кбит/сек
Ширина                                   : 704 пикселя
Высота                                   : 400 пикселей
Соотношение сторон                       : 16:9
Частота кадров                           : 25,000 кадров/сек
Цветовое пространство                    : YUV
Субдискретизация насыщенности            : 4:2:0
Битовая глубина                          : 8 бит
Тип развёртки                            : Прогрессивная
Метод сжатия                             : С потерями
Бит/(Пиксели*Кадры)                      : 0.193
Размер потока                            : 573 Мбайт (91%)
Библиотека кодирования                   : XviD 1.2.1 (UTC 2008-12-04)

Аудио
Идентификатор                            : 1
Формат                                   : MPEG Audio
Версия формата                           : Version 1
Профиль формата                          : Layer 3
Идентификатор кодека                     : 55
Идентификатор кодека/Подсказка           : MP3
Продолжительность                        : 58 м. 58 с.
Вид битрейта                             : Постоянный
Битрейт                                  : 128 Кбит/сек
Каналы                                   : 2 канала
Частота                                  : 48,0 КГц
Метод сжатия                             : С потерями
Размер потока                            : 54,0 Мбайт (9%)
Выравнивание                             : Соединение по промежуткам
Продолжительность промежутка             : 40  мс. (1,00 видеокадр)
Время предзагрузки промежутка            : 504  мс.
Библиотека кодирования                   : LAME3.98r
Настройки программы                      : -m s -V 4 -q 2 -lowpass 17 -b 128

Общее
Полное имя                               : D:\Njurnb.process.Naci.pre-pniki.na.skame.pod-yh.(1-3.serii.iz.3).2006.XviD.SATRip\Njurnb.process.Naci.pre-pniki.na.skame.pod-yh.(2.serija.iz.3).2006.XviD.SATRip.avi
Формат                                   : AVI
Формат/Информация                        : Audio Video Interleave
Размер файла                             : 659 Мбайт
Продолжительность                        : 57 м. 16 с.
Общий поток                              : 1610 Кбит/сек
Библиотека кодирования                   : VirtualDub build 32507/release

Видео
Идентификатор                            : 0
Формат                                   : MPEG-4 Visual
Профиль формата                          : Advanced Simple@L5
Параметр BVOP формата                    : 2
Параметр QPel формата                    : Нет
Параметр GMC формата                     : Без точки перехода
Параметр матрицы формата                 : Default (H.263)
Режим смешивания                         : Сжатый битовый поток
Идентификатор кодека                     : XVID
Идентификатор кодека/Подсказка           : XviD
Продолжительность                        : 57 м. 16 с.
Битрейт                                  : 1472 Кбит/сек
Ширина                                   : 704 пикселя
Высота                                   : 400 пикселей
Соотношение сторон                       : 16:9
Частота кадров                           : 25,000 кадров/сек
Цветовое пространство                    : YUV
Субдискретизация насыщенности            : 4:2:0
Битовая глубина                          : 8 бит
Тип развёртки                            : Прогрессивная
Метод сжатия                             : С потерями
Бит/(Пиксели*Кадры)                      : 0.209
Размер потока                            : 603 Мбайт (91%)
Библиотека кодирования                   : XviD 1.2.1 (UTC 2008-12-04)

Аудио
Идентификатор                            : 1
Формат                                   : MPEG Audio
Версия формата                           : Version 1
Профиль формата                          : Layer 3
Режим                                    : Joint stereo
Идентификатор кодека                     : 55
Идентификатор кодека/Подсказка           : MP3
Продолжительность                        : 57 м. 15 с.
Вид битрейта                             : Постоянный
Битрейт                                  : 128 Кбит/сек
Каналы                                   : 2 канала
Частота                                  : 48,0 КГц
Метод сжатия                             : С потерями
Размер потока                            : 52,4 Мбайт (8%)
Выравнивание                             : Разделение по промежуткам
Продолжительность промежутка             : 40  мс. (1,00 видеокадр)
Время предзагрузки промежутка            : 500  мс.

Общее
Полное имя                               : D:\Njurnb.process.Naci.pre-pniki.na.skame.pod-yh.(1-3.serii.iz.3).2006.XviD.SATRip\Njurnb.process.Naci.pre-pniki.na.skame.pod-yh.(3.serija.iz.3).2006.XviD.avi
Формат                                   : AVI
Формат/Информация                        : Audio Video Interleave
Размер файла                             : 611 Мбайт
Продолжительность                        : 57 м. 49 с.
Общий поток                              : 1478 Кбит/сек
Программа кодирования                    : VirtualDubMod 1.5.10.2 (build 2540/release)
Библиотека кодирования                   : VirtualDubMod build 2540/release

Видео
Идентификатор                            : 0
Формат                                   : MPEG-4 Visual
Профиль формата                          : Advanced Simple@L5
Параметр BVOP формата                    : 1
Параметр QPel формата                    : Нет
Параметр GMC формата                     : Без точки перехода
Параметр матрицы формата                 : Default (MPEG)
Идентификатор кодека                     : XVID
Идентификатор кодека/Подсказка           : XviD
Продолжительность                        : 57 м. 49 с.
Битрейт                                  : 1340 Кбит/сек
Ширина                                   : 704 пикселя
Высота                                   : 400 пикселей
Соотношение сторон                       : 16:9
Частота кадров                           : 25,000 кадров/сек
Цветовое пространство                    : YUV
Субдискретизация насыщенности            : 4:2:0
Битовая глубина                          : 8 бит
Тип развёртки                            : Прогрессивная
Метод сжатия                             : С потерями
Бит/(Пиксели*Кадры)                      : 0.190
Размер потока                            : 554 Мбайт (91%)
Библиотека кодирования                   : XviD 1.2.1 (UTC 2008-12-04)

Аудио
Идентификатор                            : 1
Формат                                   : MPEG Audio
Версия формата                           : Version 1
Профиль формата                          : Layer 3
Идентификатор кодека                     : 55
Идентификатор кодека/Подсказка           : MP3
Продолжительность                        : 57 м. 49 с.
Вид битрейта                             : Постоянный
Битрейт                                  : 128 Кбит/сек
Каналы                                   : 2 канала
Частота                                  : 48,0 КГц
Метод сжатия                             : С потерями
Размер потока                            : 52,9 Мбайт (9%)
Выравнивание                             : Соединение по промежуткам
Продолжительность промежутка             : 40  мс. (1,00 видеокадр)
Время предзагрузки промежутка            : 504  мс.
Библиотека кодирования                   : LAME3.98r
Настройки программы                      : -m s -V 4 -q 2 -lowpass 17 -b 128

Общее
Полное имя                               : D:\Njurnb.process.Naci.pre-pniki.na.skame.pod-yh.(1-3.serii.iz.3).2006.XviD.SATRip\Thumbs.db
Размер файла                             : 23,5 Кбайт
1.Альберт Шпеер
Любимый архитектор Гитлера Альберт Шпеер был необычным нацистом. Он происходил из благородной семьи, получил хорошее образование, имел прекрасные манеры. На первый взгляд он никак не подходил на роль военного преступника. Эти качества пришлось как нельзя кстати во время Нюрнбергского о процесса, более того Шпеер был достаточно умен, чтобы понять - союзникам необходимо его признание, чтобы иметь возможность выдвинуть обвинения против других нацистских преступников. Спустя 20 лет в стенах тюрьмы Шпандау, в 1960-х годах Шпеер вышел на свободу, написал бестселлер, и даже попал на страницы Плейбоя, в то время как другие нацисты, совершившие аналогичные преступления, были приговорены к смертной казни.
2. Герман Геринг
Герман Геринг был главнокомандующим Люфтваффе и преданным соратником Гитлера. Этот эпизод посвящен последнему поражению Геринга и решающей роли, которую в нем сыграл еврейский тюремный психолог Гюстав Гилберт. Геринг был признан виновным по всем пунктам обвинения и приговорен к смертной казни. Однако 14 октября 1946 года, в ночь перед исполнением приговора он покончил жизнь самоубийством, приняв цианистый калий. Неизвестно, держал ли Геринг яд в своей камере, или его тайком пронес в тюрьму один из охранников.
3. Рудольф Гесс
Рудольф Гесс был самой крупной фигурой после Геринга, попавшей в руки союзников. Он приложил руку к написанию «Майн Кампфа» и был заместителем фюрера. В 1941 году произошел один из самых странных эпизодов за всю историю войны: Гесс украл однодвигательный истребитель и отправился на нем в Шотландию, чтобы предложить Великобритании заключить мирное соглашение. В результате Гитлер объявил Гесса сумасшедшим; и остаток войны он провел в плену у англичан. Судьи Нюрнбергского процесса серьезно сомневались в его адекватности, поскольку Гесс утверждал, что не помнит своего нацистского прошлого. В этой серии мы узнаем, о том как американский психиатр Дуглас Келли и тюремный психолог Гюстав Гилберт пытались подобрать ключ к загадочной амнезии Рудольфа Гесса и его навязчивым идеям.

Скриншоты:




Время раздачи: Пн-Пт с 16:00 до 20:00, Сб-Вс с 09:00 до 20:30 (до появления первых 3-5 скачавших)
 
Не забывайте говорить Спасибо. Не уходите с раздачи!   
Торрент: Зарегистрирован [23 сен 2016, 18:21] Для скачивания .torrent
необходима регистрация
Или скачать с помощью
MediaGet
Статус:
Проверен
 
.torrent скачан: 1 раз
Хэш: 24e6b8c03017800c1d436dbae596f7252de52309
Размер: 1.86 ГБ (1 994 073 146 байт)
Стать Автором раздачи
 
 
Раздал: 100 ГБ
Скачал: 0 байт
Ратио: Seed.
Сообщения: 85836
Зарегистрирован: 09 апр 2015, 22:31


  • Похожие торренты
    Ответы
    Просмотры
    Последнее сообщение

Вернуться в BBC

Кто сейчас на конференции

Сейчас эту тему просматривают: нет зарегистрированных пользователей и гости: 1

Ресурс не предоставляет электронные версии произведений, а занимается лишь коллекционированием и каталогизацией ссылок, присылаемых и публикуемых на форуме нашими читателями. Если вы являетесь правообладателем какого-либо представленного материала и не желаете чтобы ссылка на него находилась в нашем каталоге, свяжитесь с нами и мы незамедлительно удалим её. Файлы для обмена на трекере предоставлены пользователями сайта, и администрация не несёт ответственности за их содержание. Просьба не заливать файлы, защищенные авторскими правами, а также файлы нелегального содержания!