Энтерпрайз - авианосец на войне / Carrier at war: The USS Enterprise (2007) SATRip

 
 Статистика раздачи 
Размер: 777.49 МБ   |  Зарегистрирован: 23 сен 2016, 16:11   |   .torrent скачан: 1 раз
Сидеров: 1  [ 0 байт/сек ]     Личеров: 1  [ 0 байт/сек ]  
  

Энтерпрайз - авианосец на войне / Carrier at war: The USS Enterprise (2007) SATRip

Сообщение explosiveone » 23 сен 2016, 16:11

Энтерпрайз - авианосец на войне / Carrier at war: The USS Enterprise (2007) SATRip

Телекомпания: США, SNI/SI Networks L.L.C. (Smithsonian Channel), OFF The Fence
Жанр: Документальный

Описание:
Американская армада рассекает волны Аравийского моря. Возглавляет ударную группу один из самых мощных военных кораблей в истории мореплавания -- авианосец Enterprise. Его команда несет службу в самых горячих точках планеты. Корабли призваны обеспечить воздушную поддержку наземных операций при помощи новейших самолетов и вооружения. Жизнь этого авианосца напоминает сложный танец тысяч человек. День за днем, неделя за неделей и месяц за месяцем они работают не покладая рук и ждут возвращения домой. В мае 2006-го года Энтерпрайз отправился в 6-ти месячный поход, работая в зонах 6-го, 5-го и 7-го флотов США, одновременно поддерживая сразу 2 операции: "Operation Iraqi Freedom" и "Operation Enduring Freedom".

Продолжительность: 00:50:59
Качество видео: SATRip
Перевод: Одноголосый закадровый, профессиональный

Видео: DivX 5, 640x480, ~2000 Kbps
Аудио: MP3, 2 ch, 128 Kbps
Код:
Код: Выделить всё
Общее
Полное имя                               : F:\Энтерпрайз - авианосец на войне_(Carrier at war - THE USS ENTERPRISE)_DivX.Rus(2007).avi
Формат                                   : AVI
Формат/Информация                        : Audio Video Interleave
Размер файла                             : 777 Мбайт
Продолжительность                        : 50 м. 59 с.
Общий поток                              : 2132 Кбит/сек

Видео
Идентификатор                            : 0
Формат                                   : MPEG-4 Visual
Параметр BVOP формата                    : 1
Параметр QPel формата                    : Нет
Параметр GMC формата                     : Без точки перехода
Параметр матрицы формата                 : Default (H.263)
Режим смешивания                         : Сжатый битовый поток
Идентификатор кодека                     : DX50
Идентификатор кодека/Подсказка           : DivX 5
Продолжительность                        : 50 м. 59 с.
Битрейт                                  : 2000 Кбит/сек
Ширина                                   : 640 пикселей
Высота                                   : 480 пикселей
Соотношение сторон                       : 4:3
Частота кадров                           : 25,000 кадров/сек
Цветовое пространство                    : YUV
Субдискретизация насыщенности            : 4:2:0
Битовая глубина                          : 8 бит
Тип развёртки                            : Прогрессивная
Метод сжатия                             : С потерями
Бит/(Пиксели*Кадры)                      : 0.260
Размер потока                            : 729 Мбайт (94%)
Библиотека кодирования                   : DivX 6.2.5 (UTC 2006-07)

Аудио
Идентификатор                            : 1
Формат                                   : MPEG Audio
Версия формата                           : Version 1
Профиль формата                          : Layer 3
Идентификатор кодека                     : 55
Идентификатор кодека/Подсказка           : MP3
Продолжительность                        : 50 м. 59 с.
Вид битрейта                             : Постоянный
Битрейт                                  : 128 Кбит/сек
Каналы                                   : 2 канала
Частота                                  : 48,0 КГц
Метод сжатия                             : С потерями
Размер потока                            : 46,7 Мбайт (6%)
Выравнивание                             : Разделение по промежуткам
Продолжительность промежутка             : 500  мс. (12,50 видеокадров)
Время предзагрузки промежутка            : 750  мс.

Скриншоты:




Время раздачи: Пн-Пт с 16:00 до 20:00, Сб-Вс с 09:00 до 20:30 (до появления первых 3-5 скачавших)
 
Не забывайте говорить Спасибо. Не уходите с раздачи!   
Торрент: Зарегистрирован [23 сен 2016, 16:11] Для скачивания .torrent
необходима регистрация
Или скачать с помощью
MediaGet
Статус:
Проверен
 
.torrent скачан: 1 раз
Хэш: dff4ca2f14ba9097fce10e1ae862e8abf5c855e8
Размер: 777.49 МБ (815 255 514 байт)
Стать Автором раздачи
 
 
Раздал: 100 ГБ
Скачал: 0 байт
Ратио: Seed.
Сообщения: 82670
Зарегистрирован: 09 апр 2015, 22:31


  • Похожие торренты
    Ответы
    Просмотры
    Последнее сообщение

Вернуться в Флот

Кто сейчас на конференции

Сейчас эту тему просматривают: нет зарегистрированных пользователей и гости: 1

Ресурс не предоставляет электронные версии произведений, а занимается лишь коллекционированием и каталогизацией ссылок, присылаемых и публикуемых на форуме нашими читателями. Если вы являетесь правообладателем какого-либо представленного материала и не желаете чтобы ссылка на него находилась в нашем каталоге, свяжитесь с нами и мы незамедлительно удалим её. Файлы для обмена на трекере предоставлены пользователями сайта, и администрация не несёт ответственности за их содержание. Просьба не заливать файлы, защищенные авторскими правами, а также файлы нелегального содержания!