Королевская битва / Batoru rowaiaru (2000) BDRip [H.264] [MP4|1024x576]

 
 Статистика раздачи 
Размер: 1.97 ГБ   |  Зарегистрирован: 21 сен 2016, 11:53   |   .torrent скачан: 0 раз
Сидеров: 1  [ 0 байт/сек ]     Личеров: 0  [ 0 байт/сек ]  
  

Королевская битва / Batoru rowaiaru (2000) BDRip [H.264] [MP4|1024x576]

Сообщение explosiveone » 21 сен 2016, 11:53

Королевская битва / Batoru rowaiaru (2000) BDRip

«Ты когда-нибудь УБИВАЛ своего лучшего ДРУГА?..»

Производство: Япония, Battle Royale Production Committee, GAGA, WoWow, AM Associates, Fukasaku-gumi
Жанр: Боевик, Фантастика, Триллер

Режиссер: Киндзи Фукасаку
Актеры: Такеши Китано, Татсуя Фудживара, Аки Маэда, Юко Миямура, Таро Ямамото, Ко Шибасаки, Чиаки Курияма, Соускэ Такаока, Такаши Цукамото, Юкихиро Котани

Описание:
Такого еще не было, но будет! Очень скоро! Родители лишатся работы, а дети выйдя из под контроля, учинят террор и массовый бойкот взрослым. Ответная мера: «Королевская битва» - санкционированная правительством жестокая игра, в которой неуправляемых школьников заставят участвовать под дулами армейских автоматов.
На необитаемом острове 42 подростка будут 3 дня безжалостно уничтожать друг друга, чтобы победить. Только одному игроку разрешено вернуться на большую землю живым. Невозмутимый распорядитель зловещей игры - школьный учитель Китано. Свое имя дал герою исполнитель этой роли всемирно известный культовый актер и режиссер Такеши Китано. Кровь льется рекой, но учитель Китано гарантирует не только соблюдение условий игры, но и ее условность.
Юные герои гибнут, точь-в-точь как в компьютерной «стрелялке». Вот только мораль фильма не виртуальная. Из безумного электронного будущего она обращена в сегодняшний день.


Возраст: 18+ (зрителям, достигшим 18 лет. запрещено для детей)

Продолжительность: 01:59:07
Качество видео: BDRip
Перевод: Дублированный
Вид субтитров: Вшитые отключаемые
Язык субтитров: Русский, Английский

Видео: AVC/H.264 (Main@L3.1), 1024x576 (16:9), 2100 Кбит/сек
Аудио #1: AAC, 2 канала, 128 Кбит/сек - русский (дублированный)
Аудио #2: AAC, 2 канала, 128 Кбит/сек - японский
Код:
Код: Выделить всё
General
Complete name                            : C:\CREATE\264mod1\out\1\Battle.Royale.2000.576p.BDRip.AAC.x264.NNMclub.mp4
Format                                   : MPEG-4
Format profile                           : Base Media / Version 2
Codec ID                                 : mp42 (mp42/isom)
File size                                : 1.97 GiB
Duration                                 : 1h 59mn
Overall bit rate mode                    : Variable
Overall bit rate                         : 2 364 Kbps
Movie name                               : Battle Royale
Performer                                : Kinji Fukasaku
Director                                 : Kinji Fukasaku
Actor                                    : Taro Yamamoto / 前田亜季 / 藤原竜也 / 栗山千明
Producer                                 : Kenta Fukasaku / Chie Kobayashi / Masumi Okada / Kimio Kataoka / Toshio Nabeshima
Genre                                    : Action & Adventure
ContentType                              : Short Film
Description                              : In this uncensored and unrated Director's Cut of the cult classic, a group of ninth-grade students from a Japanese high school have been forced by legislation to compete in a Battle Royale. The students are each given a bag with a randomly selected weapon and a few rations of food and water and sent off with three days to kill each other until one survives - or they all die. The story focuses on a few of the students and how they cope. Some, like the psychotic Kiriyama or the hyper-sexual Mistuko, decide to play the game.  Others, like Shuya, Noriko, and Kawada, try to find a ways to get off the island without violence. But as the violence increases and the numbers fall, can Shuya and his classmates survive?
Recorded date                            : 2000-12-16
Encoded date                             : UTC 2016-09-21 07:39:35
Tagged date                              : UTC 2016-09-21 08:17:12
Copyright                                : © 2000 Battle Royale Production Committee
Cover                                    : Yes
Rating                                   : None
LongDescription                          : In this uncensored and unrated Director's Cut of the cult classic, a group of ninth-grade students from a Japanese high school have been forced by legislation to compete in a Battle Royale. The students are each given a bag with a randomly selected weapon and a few rations of food and water and sent off with three days to kill each other until one survives - or they all die. The story focuses on a few of the students and how they cope. Some, like the psychotic Kiriyama or the hyper-sexual Mistuko, decide to play the game.  Others, like Shuya, Noriko, and Kawada, try to find a ways to get off the island without violence. But as the violence increases and the numbers fall, can Shuya and his classmates survive?
AppleStoreCountry                        : United States
AppleStoreCatalogID                      : 502334437
ContentRating                            : mpaa|Unrated|???|

Video
ID                                       : 1
Format                                   : AVC
Format/Info                              : Advanced Video Codec
Format profile                           :
Format settings, CABAC                   : No
Format settings, ReFrames                : 3 frames
Codec ID                                 : avc1
Codec ID/Info                            : Advanced Video Coding
Duration                                 : 1h 59mn
Bit rate                                 : 2 100 Kbps
Width                                    : 1 024 pixels
Height                                   : 576 pixels
Display aspect ratio                     : 16:9
Frame rate mode                          : Variable
Frame rate                               : 23.976 (24000/1001) fps
Minimum frame rate                       : 23.810 fps
Maximum frame rate                       : 24.390 fps
Color space                              : YUV
Chroma subsampling                       : 4:2:0
Bit depth                                : 8 bits
Scan type                                : Progressive
Bits/(Pixel*Frame)                       : 0.148
Stream size                              : 1.75 GiB (89%)
Writing library                          : x264 core 148 r2705+54 9f484c1 t_mod_Custom [8-bit@all X86]
Encoding settings                        : cabac=0 / ref=3 / deblock=1:0:0 / analyse=0x1:0x131 / me=umh / subme=7 / psy=1 / fade_compensate=0.00 / psy_rd=1.00:0.00 / mixed_ref=1 / me_range=32 / chroma_me=1 / trellis=2 / 8x8dct=0 / cqm=0 / deadzone=21,11 / fast_pskip=0 / chroma_qp_offset=-2 / threads=18 / lookahead_threads=3 / sliced_threads=0 / nr=0 / decimate=0 / interlaced=0 / bluray_compat=0 / constrained_intra=0 / fgo=0 / bframes=3 / b_pyramid=1 / b_adapt=2 / b_bias=0 / direct=3 / weightb=1 / open_gop=0 / weightp=2 / keyint=240 / keyint_min=23 / scenecut=40 / intra_refresh=0 / rc_lookahead=50 / rc=2pass / mbtree=1 / bitrate=2100 / ratetol=1.0 / qcomp=0.60 / qpmin=0:0:0 / qpmax=69:69:69 / qpstep=4 / cplxblur=20.0 / qblur=0.5 / vbv_maxrate=14000 / vbv_bufsize=14000 / nal_hrd=none / filler=0 / ip_ratio=1.40 / aq=3:0.80 / aq-sensitivity=10.00 / aq-factor=1.00:1.00:1.00 / aq2=1:0.80 / aq2-sensitivity=12.00 / aq2-factor=1.00:1.00:1.00 / aq3=4:[0.50:0.50]:[0.50:0.50]:[0.50:0.50]:[0.50:0.50] / aq3-sensitivity=10.00 / aq3-factor=[1.00:1.00]:[1.00:1.00]:[1.00:1.00] / aq3-boundary=192:64:24
Encoded date                             : UTC 2016-09-21 07:39:35
Tagged date                              : UTC 2016-09-21 07:55:17
Color range                              : Limited
Matrix coefficients                      : BT.709

Audio #1
ID                                       : 2
Format                                   : AAC
Format/Info                              : Advanced Audio Codec
Format profile                           : LC
Codec ID                                 : 40
Duration                                 : 1h 58mn
Source duration                          : 1h 58mn
Bit rate mode                            : Variable
Bit rate                                 : 128 Kbps
Maximum bit rate                         : 132 Kbps
Channel(s)                               : 2 channels
Channel positions                        : Front: L R
Sampling rate                            : 48.0 KHz
Frame rate                               : 46.875 fps (1024 spf)
Compression mode                         : Lossy
Stream size                              : 109 MiB (5%)
Source stream size                       : 109 MiB (5%)
Language                                 : Russian
Default                                  : Yes
Alternate group                          : 1
Encoded date                             : UTC 2016-09-21 07:39:35
Tagged date                              : UTC 2016-09-21 07:55:17

Audio #2
ID                                       : 3
Format                                   : AAC
Format/Info                              : Advanced Audio Codec
Format profile                           : LC
Codec ID                                 : 40
Duration                                 : 1h 59mn
Source duration                          : 1h 59mn
Bit rate mode                            : Variable
Bit rate                                 : 128 Kbps
Maximum bit rate                         : 132 Kbps
Channel(s)                               : 2 channels
Channel positions                        : Front: L R
Sampling rate                            : 48.0 KHz
Frame rate                               : 46.875 fps (1024 spf)
Compression mode                         : Lossy
Stream size                              : 109 MiB (5%)
Source stream size                       : 109 MiB (5%)
Language                                 : Japanese
Default                                  : No
Alternate group                          : 1
Encoded date                             : UTC 2016-09-21 07:39:35
Tagged date                              : UTC 2016-09-21 07:55:17

Text #1
ID                                       : 4
Format                                   : Timed Text
Muxing mode                              : sbtl
Codec ID                                 : tx3g
Duration                                 : 1h 54mn
Bit rate mode                            : Variable
Bit rate                                 : 57 bps
Stream size                              : 47.9 KiB (0%)
Language                                 : Russian
Default                                  : Yes
Forced                                   : No
Alternate group                          : 2
Encoded date                             : UTC 2016-09-21 07:39:35
Tagged date                              : UTC 2016-09-21 07:55:17

Text #2
ID                                       : 5
Format                                   : Timed Text
Muxing mode                              : sbtl
Codec ID                                 : tx3g
Duration                                 : 1h 54mn
Bit rate mode                            : Variable
Bit rate                                 : 30 bps
Stream size                              : 25.3 KiB (0%)
Language                                 : English
Default                                  : No
Forced                                   : No
Alternate group                          : 2
Encoded date                             : UTC 2016-09-21 07:39:35
Tagged date                              : UTC 2016-09-21 07:55:17

Скриншоты:




Время раздачи: 24/7 (круглосуточно) (до появления первых 3-5 скачавших)
 
Не забывайте говорить Спасибо. Не уходите с раздачи!   
Торрент: Зарегистрирован [21 сен 2016, 11:53] Для скачивания .torrent
необходима регистрация
Или скачать с помощью
MediaGet
Статус:
Проверен
 
.torrent скачан: 0 раз
Хэш: 5c53b563fe82ec7cd679d89f96e4549ff78c18fe
Размер: 1.97 ГБ (2 111 935 594 байт)
Стать Автором раздачи
 
 
Раздал: 100 ГБ
Скачал: 0 байт
Ратио: Seed.
Сообщения: 94007
Зарегистрирован: 09 апр 2015, 22:31


  • Похожие торренты
    Ответы
    Просмотры
    Последнее сообщение

Вернуться в Видео для мобильных устройств

Ресурс не предоставляет электронные версии произведений, а занимается лишь коллекционированием и каталогизацией ссылок, присылаемых и публикуемых на форуме нашими читателями. Если вы являетесь правообладателем какого-либо представленного материала и не желаете чтобы ссылка на него находилась в нашем каталоге, свяжитесь с нами и мы незамедлительно удалим её. Файлы для обмена на трекере предоставлены пользователями сайта, и администрация не несёт ответственности за их содержание. Просьба не заливать файлы, защищенные авторскими правами, а также файлы нелегального содержания!
cron