Линкор "Гнайзенау": флагманский корабль Кригсмарине / Schlachtschiff Gneisenau: Flottenflaggschiff der Kriegsmarine (Карл-Хайнц Гейгер / Karl-Heinz Geiger) [2005, военный, DVD5 (Custom)] VO Д.Есарев

 
 Статистика раздачи 
Размер: 4.34 ГБ   |  Зарегистрирован: 20 сен 2016, 21:30   |   .torrent скачан: 0 раз
Сидеров: 5  [ 0 байт/сек ]     Личеров: 1  [ 0 байт/сек ]  
  

Линкор "Гнайзенау": флагманский корабль Кригсмарине / Schlachtschiff Gneisenau: Flottenflaggschiff der Kriegsmarine (Карл-Хайнц Гейгер / Karl-Heinz Geiger) [2005, военный, DVD5 (Custom)] VO Д.Есарев

Сообщение aLaVodka » 20 сен 2016, 21:30

Линкор "Гнайзенау": флагманский корабль Кригсмарине / Schlachtschiff Gneisenau: Flottenflaggschiff der Kriegsmarine

Год выпуска: 2005
Страна: Германия
Жанр: военный
Продолжительность: 00:46:15
Перевод: Одноголосый закадровый Д.Есарев
Русские субтитры: есть, в т.ч. на текст в кадре.

Режиссер: Карл-Хайнц Гейгер / Karl-Heinz Geiger

Описание: Двухсерийный документальный фильм рассказывает историю линкора "Гнайзенау", начиная от чертежей, и заканчивая его гибелью 27 марта 1945 года. Ранее не публиковавшиеся цветные и чёрно-белые кадры кинохроники, часть которых снята членами экипажа в частном порядке, покажут "Гнайзенау" со всех ракурсов. Так же показаны отсеки корабля, его оснащение, силовая установка, вооружение и условия размещения экипажа. Помимо эксплуатации в мирное время, показаны так же и все случаи боевого применения корабля. После прорыва сквозь Ла-Манш, 13 февраля 1942 года "Гнайзенау" сильно пострадал от прямого попадания авиабомбы, которое вывело линкор из строя. 27 марта 1945 года "Гнайзенау" был торпедирован немецкими катерами, чтобы, опустившись на дно, корабль в качестве блокшива перекрыл вход в бухту г. Гдыня.

Доп. информация: Оригинальный диск предоставлен Arias. Перевод субтитрами D.N.Yu, по ним проведена озвучка. Перевод состоялся благодаря privedenie, озвучка- Serg_70 (Riderman). Русская дорожка взята отсюда . Всем спасибо.

Используемое ПО:
PGCDemux (извлечение).
SubtitleCreator (работа с субтитрами).
MuxMan (сборка).
VobBlanker (финал)

Бонусы: фотогалерея, документы, трейлер.

Меню: Есть, озвучено, анимировано.

Релиз:

Сэмпл: http://sendfile.su/1267235

Главы (разбивка по трекам): есть
Качество: DVD5 (Custom)
Формат: DVD Video
Видео кодек: MPEG2
Аудио кодек: AC3
Видео: PAL 4:3 (720x576) VBR, 8000 Кбит/сек
Аудио 1: Russian (Dolby AC3, 2 ch, 192 kbps)
Аудио 2: Deutsch (Dolby AC3, 2 ch, 192 kbps)
Код: Выделить всё
Size: 4.28 Gb ( 4 489 264,00 KBytes ) - DVD-5
Enabled regions: 1, 2, 3, 4, 5, 6, 7, 8

VTS_01 :
  Play Length: 00:00:55+00:00:19+00:00:16+00:02:02+00:46:15+00:00:00+00:00:05+00:00:03+00:00:03+00:00:03+00:00:03+00:00:03+00:00:03+00:00:03+00:00:03+00:00:03+00:00:03+00:00:03+00:00:03+00:00:03+00:00:03+00:00:03+00:00:03+00:00:03+00:00:03+00:00:03+00:00:03+00:00:03+00:00:03+00:00:03+00:00:03+00:00:03+00:00:00+00:01:05+00:12:15+00:01:00+00:01:28+00:03:25+00:00:00+00:00:00+00:00:00+00:00:00+00:00:00+00:00:00+00:00:00+00:00:00+00:00:00+00:00:00+00:00:00+00:00:00+00:00:00+00:00:00+00:00:00+00:00:00+00:00:00+00:00:00+00:00:00+00:00:00+00:00:00+00:00:00+00:00:00+00:00:00+00:00:00+00:00:00+00:00:00+00:00:00+00:00:00+00:00:00+00:00:00+00:00:00+00:00:00+00:00:00+00:00:00+00:00:00+00:00:00+00:00:00+00:00:00+00:00:00+00:00:00+00:00:00+00:00:00+00:00:00+00:00:00+00:00:00+00:00:00+00:00:00+00:00:00+00:00:00+00:00:00+00:00:00+00:00:00+00:00:00+00:00:00+00:00:00+00:00:00+00:00:00+00:00:00+00:00:00+00:00:00+00:00:00+00:00:00+00:00:00+00:00:00+00:00:00+00:00:00+00:00:00+00:00:00+00:00:00+00:00:00+00:00:00+00:00:00+00:00:00+00:00:00+00:00:00+00:00:00+00:00:00+00:00:00+00:00:00+00:00:00+00:00:00+00:00:00+00:00:00+00:00:00+00:00:00+00:00:00+00:00:00+00:00:00+00:00:00+00:00:00+00:00:00+00:00:00+00:00:00+00:00:00+00:00:00+00:00:00+00:04:18+00:05:35+00:06:10+00:04:31+00:04:36+00:00:00+00:00:00+00:00:00+00:00:00+00:00:00+00:00:00+00:00:00+00:00:00+00:03:20
  Video: PAL 4:3 (720x576) VBR

* Menus Information *

VIDEO_TS Menu
Video:
      PAL 4:3 (720x576) VBR
Audio:
      Not specified (Dolby AC3, 2 ch)
Deutsch Language Unit :
      Title Menu

VTS_01 Menu
Video:
      PAL 4:3 (720x576) VBR
Deutsch Language Unit :
      Root Menu
Код: Выделить всё
Формат                                   : MPEG-PS
Размер файла                             : 1024 Мбайт
Продолжительность                        : 23 м.
Режим общего битрейта                    : Переменный
Общий поток                              : 6009 Кбит/сек

Видео
Идентификатор                            : 224 (0xE0)
Формат                                   : MPEG Video
Версия формата                           : Version 2
Профиль формата                          : [email protected]
Параметр BVOP формата                    : Да
Параметр матрицы формата                 : По умолчанию
Параметр GOP формата                     : M=3, N=12
Продолжительность                        : 23 м.
Вид битрейта                             : Переменный
Битрейт                                  : 5506 Кбит/сек
Максимальный битрейт                     : 7500 Кбит/сек
Ширина                                   : 720 пикселей
Высота                                   : 576 пикселей
Соотношение сторон                       : 4:3
Частота кадров                           : 25,000 кадров/сек
Стандарт вещания                         : PAL
Цветовое пространство                    : YUV
Субдискретизация насыщенности            : 4:2:0
Битовая глубина                          : 8 бит
Тип развёртки                            : Чересстрочная
Порядок развёртки                        : Верхнее поле первое
Метод сжатия                             : С потерями
Бит/(Пиксели*Кадры)                      : 0.531
Временной код первого кадра              : 00:00:00:00
Оригинал временного кода                 : Group of pictures header
Размер потока                            : 938 Мбайт (92%)

Аудио #1
Идентификатор                            : 189 (0xBD)-128 (0x80)
Формат                                   : AC-3
Формат/Информация                        : Audio Coding 3
Расширение режима                        : CM (complete main)
Параметр Endianness формата              : Big
Режим смешивания                         : DVD-Video
Продолжительность                        : 23 м.
Вид битрейта                             : Постоянный
Битрейт                                  : 192 Кбит/сек
Каналы                                   : 2 канала
Расположение каналов                     : Front: L R
Частота                                  : 48,0 КГц
Битовая глубина                          : 16 бит
Метод сжатия                             : С потерями
Размер потока                            : 32,7 Мбайт (3%)

Аудио #2
Идентификатор                            : 189 (0xBD)-129 (0x81)
Формат                                   : AC-3
Формат/Информация                        : Audio Coding 3
Расширение режима                        : CM (complete main)
Параметр Endianness формата              : Big
Режим смешивания                         : DVD-Video
Продолжительность                        : 23 м.
Вид битрейта                             : Постоянный
Битрейт                                  : 192 Кбит/сек
Каналы                                   : 2 канала
Расположение каналов                     : Front: L R
Частота                                  : 48,0 КГц
Битовая глубина                          : 16 бит
Метод сжатия                             : С потерями
Размер потока                            : 32,7 Мбайт (3%)

Текст
Идентификатор                            : 189 (0xBD)-33 (0x21)
Формат                                   : RLE
Формат/Информация                        : Run-length encoding
Режим смешивания                         : DVD-Video
Задержка видео                           : 6 с. 520 мс.

Меню
 
Не забывайте говорить Спасибо. Не уходите с раздачи!   
Торрент: Зарегистрирован [20 сен 2016, 21:30] Для скачивания .torrent
необходима регистрация
Или скачать с помощью
MediaGet
Статус:
Проверен
 
.torrent скачан: 0 раз
Хэш: 2fe2a1b98487270849a8bc586e35d1efcdb25d17
Размер: 4.34 ГБ (4 664 721 408 байт)
Стать Автором раздачи
 
 
Раздал: 100 ГБ
Скачал: 0 байт
Ратио: Seed.
Сообщения: 183321
Зарегистрирован: 09 апр 2015, 20:00


  • Похожие торренты
    Ответы
    Просмотры
    Последнее сообщение

Вернуться в Документальные (DVD)

Кто сейчас на конференции

Сейчас эту тему просматривают: нет зарегистрированных пользователей и гости: 1

Ресурс не предоставляет электронные версии произведений, а занимается лишь коллекционированием и каталогизацией ссылок, присылаемых и публикуемых на форуме нашими читателями. Если вы являетесь правообладателем какого-либо представленного материала и не желаете чтобы ссылка на него находилась в нашем каталоге, свяжитесь с нами и мы незамедлительно удалим её. Файлы для обмена на трекере предоставлены пользователями сайта, и администрация не несёт ответственности за их содержание. Просьба не заливать файлы, защищенные авторскими правами, а также файлы нелегального содержания!