А.В. Анисимов. Лекция «Пространство Вселенной в архитектуре планетариев» (2014) WEBRip [H.264] [MP4|1920х1080]

 
 Статистика раздачи 
Размер: 610.5 МБ   |  Зарегистрирован: 18 сен 2016, 17:34   |   .torrent скачан: 0 раз
Сидеров: 1  [ 0 байт/сек ]     Личеров: 0  [ 0 байт/сек ]  
  

А.В. Анисимов. Лекция «Пространство Вселенной в архитектуре планетариев» (2014) WEBRip [H.264] [MP4|1920х1080]

Сообщение explosiveone » 18 сен 2016, 17:34

А.В. Анисимов. Лекция «Пространство Вселенной в архитектуре планетариев» (2014) WEBRip

Жанр: Лекция, Документальный

Ведущий: А.В. Анисимов

Описание:
В Большом Звездном зале Московского Планетария состоялась очередная лекция цикла «Трибуна ученого». На этот раз встреча со слушателями была посвящена архитектуре планетариев.
Лектор рассказал о древнейших прототипах планетариев, истории строительства планетариев и эволюции их форм. Лекция сопровождалась иллюстрациями на экране Большого Звездного зала, поэтому гости могли воочию увидеть самые первые здания планетариев всего мира, прообразы планетариев, первые аппараты «Планетарии», а также невероятных конструкций современные планетарии.
Послушать лекцию «Пространство Вселенной в архитектуре планетариев» было особенно интересно — ведь ее провел автор реконструкции Московского планетария, а также член-корреспондент Российской академии архитектуры и строительных наук, лауреат Госпремии СССР Александр Викторович Анисимов.

Продолжительность: 00:54:01
Качество видео: WEBRip

Видео: AVC/H.264, 1920х1080 (16:9), ~1451 Кбит/сек
Аудио: AAC, 2 ch, 126 Кбит/сек, VBR
Код:
Код: Выделить всё
Формат                                   : MPEG-4
Профиль формата                          : Base Media
Идентификатор кодека                     : isom (isom/iso2/avc1/mp41)
Размер файла                             : 611 Мбайт
Продолжительность                        : 54 м.
Режим общего битрейта                    : Переменный
Общий поток                              : 1580 Кбит/сек
Дата кодирования                         : UTC 2014-06-06 16:16:59
Дата пометки                             : UTC 2014-06-06 16:16:59

Видео
Идентификатор                            : 1
Формат                                   : AVC
Формат/Информация                        : Advanced Video Codec
Профиль формата                          : High@L4
Параметр CABAC формата                   : Да
Параметр ReFrames формата                : 2 кадра
Идентификатор кодека                     : avc1
Идентификатор кодека/Информация          : Advanced Video Coding
Продолжительность                        : 54 м.
Продолжительность оригинала              : 54 м.
Битрейт                                  : 1451 Кбит/сек
Ширина                                   : 1920 пикселей
Высота                                   : 1080 пикселей
Соотношение сторон                       : 16:9
Режим частоты кадров                     : Постоянный
Частота кадров                           : 25,000 кадров/сек
Цветовое пространство                    : YUV
Субдискретизация насыщенности            : 4:2:0
Битовая глубина                          : 8 бит
Тип развёртки                            : Прогрессивная
Бит/(Пиксели*Кадры)                      : 0.028
Размер потока                            : 561 Мбайт (92%)
Размер потока оригинала                  : 561 Мбайт (92%)
Дата кодирования                         : UTC 2014-06-06 16:16:59
Дата пометки                             : UTC 2014-06-06 16:16:59

Аудио
Идентификатор                            : 2
Формат                                   : AAC
Формат/Информация                        : Advanced Audio Codec
Профиль формата                          : LC
Идентификатор кодека                     : 40
Продолжительность                        : 54 м.
Вид битрейта                             : Переменный
Битрейт                                  : 126 Кбит/сек
Каналы                                   : 2 канала
Расположение каналов                     : Front: L R
Частота                                  : 44,1 КГц
Частота кадров                           : 43,066 кадра/сек (1024 spf)
Метод сжатия                             : С потерями
Размер потока                            : 48,5 Мбайт (8%)
Default                                  : Да
Alternate group                          : 1

Скриншоты:



Время раздачи: по возможности (до появления первых 3-5 скачавших)
 
Не забывайте говорить Спасибо. Не уходите с раздачи!   
Торрент: Зарегистрирован [18 сен 2016, 17:34] Для скачивания .torrent
необходима регистрация
Или скачать с помощью
MediaGet
Статус:
Проверен
 
.torrent скачан: 0 раз
Хэш: a5634fd5aa10774d05475606cef1c41eb5f75c34
Размер: 610.5 МБ (640 156 131 байт)
Стать Автором раздачи
 
 
Раздал: 100 ГБ
Скачал: 0 байт
Ратио: Seed.
Сообщения: 94127
Зарегистрирован: 09 апр 2015, 22:31


  • Похожие торренты
    Ответы
    Просмотры
    Последнее сообщение

Вернуться в Видео для мобильных устройств

Ресурс не предоставляет электронные версии произведений, а занимается лишь коллекционированием и каталогизацией ссылок, присылаемых и публикуемых на форуме нашими читателями. Если вы являетесь правообладателем какого-либо представленного материала и не желаете чтобы ссылка на него находилась в нашем каталоге, свяжитесь с нами и мы незамедлительно удалим её. Файлы для обмена на трекере предоставлены пользователями сайта, и администрация не несёт ответственности за их содержание. Просьба не заливать файлы, защищенные авторскими правами, а также файлы нелегального содержания!
cron