Битва экстрасенсов / Сезон 17 Выпуски 1-3 (Олег Чаурс) [2016, Паранормальное шоу, SATRip]

 
 Статистика раздачи 
Размер: 2.92 ГБ   |  Зарегистрирован: 18 сен 2016, 10:48   |   .torrent скачан: 0 раз
Сидеров: 1  [ 0 байт/сек ]     Личеров: 0  [ 0 байт/сек ]  
  

Битва экстрасенсов / Сезон 17 Выпуски 1-3 (Олег Чаурс) [2016, Паранормальное шоу, SATRip]

Сообщение aLaVodka » 18 сен 2016, 10:48

БИТВА ЭКСТРАСЕНСОВ / Сезон 17
Выпуски 1 и 2


***

Год выпуска: 2016
Страна: Россия
Жанр: Паранормальное шоу
Продолжительность: 3 х ~01:17:00
Язык: Русский

Ведущий: Марат Башаров
Режиссер: Олег Чаурс
Телеканал: ТНТ

Описание: 17-й сезон "Битвы экстрасенсов" - самого мистического, непредсказуемого и загадочного проекта российского ТВ. Новый сезон обещает стать самым необычным и удивительным в истории шоу!

Качество: SATRip
Формат: AVI
Видео: XviD, 720x400, (16:9), ~1800kbps, 25.000fps
Аудио: MPEG-3, 128kbps, 48.0kHz, 2ch

***
РЕКЛАМА ОТСУТСТВУЕТ

Выпуск 01 - 03.09.2016
Выпуск 02 - 10.09.2016
Выпуск 03 - 17.09.2016
Внимание! Раздача ведётся путём добавления новых выпусков; при каждом добавлении создаётся новый торрент. Чтобы начать докачку нового выпуска, пользователям необходимо сделать следующее:
(1) остановить скачивание,
(2) удалить старый торрент у себя из клиента (старые серии удалять не надо),
(3) скачать новый торрент и запустить его у себя в клиенте вместо старого, при этом указать клиенту путь в старую папку куда и должно происходить скачивание новых выпусков.

Ваш клиент при этом должен произвести хеширование (проверку) старой папки (если не производит сам - помогите ему сделать это). В результате он будет докачивать только те выпуски, которых у Вас ещё нет. Старые выпуски при этом не удаляются, а продолжают раздаваться!

Eсли Вы уже удалили старые выпуски, то предотвратить их повторную закачку можно, сняв галочки в соответствующих местах при запуске нового торрента. По возможности, желательно не удалять старые выпуски как можно дольше, чтобы релизёр не только продолжал раздавать старые выпуски, но и смог сконцентрироваться на но
D:\ÇÀÊÀ×ÊÀ\Bitva ekstrasensov 17\Bitva.ekstrasensov.17.02.avi
General
Complete name : D:\ÇÀÊÀ×ÊÀ\Bitva ekstrasensov 17\Bitva.ekstrasensov.17.02.avi
Format : AVI
Format/Info : Audio Video Interleave
File size : 1 012 MiB
Duration : 1h 12mn
Overall bit rate : 1 940 Kbps
Video #0
ID : 0
Format : MPEG-4 Visual
Format profile : Advanced Simple@L5
Format settings, BVOP : 2
Format settings, QPel : No
Format settings, GMC : No warppoints
Format settings, Matrix : Default (H.263)
Codec ID : XVID
Codec ID/Hint : XviD
Duration : 1h 12mn
Bit rate : 1 799 Kbps
Width : 720 pixels
Height : 400 pixels
Display aspect ratio : 16:9
Frame rate : 25.000 fps
Color space : YUV
Chroma subsampling : 4:2:0
Bit depth : 8 bits
Scan type : Progressive
Compression mode : Lossy
Bits/(Pixel*Frame) : 0.250
Stream size : 938 MiB (93%)
Writing library : XviD 1.2.1 (UTC 2008-12-04)
Audio #1
ID : 1
Format : MPEG Audio
Format version : Version 1
Format profile : Layer 3
Mode : Joint stereo
Mode extension : MS Stereo
Codec ID : 55
Codec ID/Hint : MP3
Duration : 1h 12mn
Bit rate mode : Constant
Bit rate : 128 Kbps
Channel(s) : 2 channels
Sampling rate : 48.0 KHz
Compression mode : Lossy
Stream size : 66.7 MiB (7%)
Alignment : Aligned on interleaves
Interleave, duration : 24 ms (0.60 video frame)
Writing library : LAME3.99r
Encoding settings : -m j -V 4 -q 9 -lowpass 17 -b 128
 
Не забывайте говорить Спасибо. Не уходите с раздачи!   
Торрент: Зарегистрирован [18 сен 2016, 10:48] Для скачивания .torrent
необходима регистрация
Или скачать с помощью
MediaGet
Статус:
Проверен
 
.torrent скачан: 0 раз
Хэш: 500175600c0f1b3d6832974ef9605135208ee336
Размер: 2.92 ГБ (3 139 272 334 байт)
Стать Автором раздачи
 
 
Раздал: 100 ГБ
Скачал: 0 байт
Ратио: Seed.
Сообщения: 185111
Зарегистрирован: 09 апр 2015, 20:00


  • Похожие торренты
    Ответы
    Просмотры
    Последнее сообщение

Вернуться в Битва экстрасенсов / Теория невероятности / Искатели / Галилео

Кто сейчас на конференции

Сейчас эту тему просматривают: нет зарегистрированных пользователей и гости: 1

Ресурс не предоставляет электронные версии произведений, а занимается лишь коллекционированием и каталогизацией ссылок, присылаемых и публикуемых на форуме нашими читателями. Если вы являетесь правообладателем какого-либо представленного материала и не желаете чтобы ссылка на него находилась в нашем каталоге, свяжитесь с нами и мы незамедлительно удалим её. Файлы для обмена на трекере предоставлены пользователями сайта, и администрация не несёт ответственности за их содержание. Просьба не заливать файлы, защищенные авторскими правами, а также файлы нелегального содержания!