Танковый музей в Кубинке (3 серии) / Panzermuseum Kubinka [2014-2015, Документальный, вооружение, экскурсия, DVDRip]

 
 Статистика раздачи 
Размер: 1.62 ГБ   |  Зарегистрирован: 17 сен 2016, 14:03   |   .torrent скачан: 1 раз
Сидеров: 1  [ 0 байт/сек ]     Личеров: 0  [ 0 байт/сек ]  
  

Танковый музей в Кубинке (3 серии) / Panzermuseum Kubinka [2014-2015, Документальный, вооружение, экскурсия, DVDRip]

Сообщение aLaVodka » 17 сен 2016, 14:03

Танковый музей в Кубинке (3 серии) / Panzermuseum Kubinka

Дата/Год выпуска: 2014-2015
Страна: Германия, Gaina Media
Жанр: Документальный, вооружение, экскурсия
Продолжительность: 2 х ~ 00:40:00 + 1 х 01:06:49
Перевод: Отсутствует
Описание: Обзорная экскурсия снятая немецкими документалистами по павильонам танкового музея в Кубинке. Бронетанковый музей в городе Кубинка - один из крупнейших в мире музеев, экспонирующих бронетехнику различных видов и исторических периодов. Экспозиция музея включает в себя большую коллекцию танков, САУ, бронеавтомобилей различных стран мира, включая серийные машины и уникальные прототипы.

Доп. информация: Авторство релиза - alf62


Перевод к сожалению отсутствует, но из просмотра видеоряда итак все понятно!

качество: DVDRip
формат: AVI
Видео: 704x400, 720x400 (1.80:1), 25 fps, XviD build 73 ~1357 kbps avg, 0.19 bit/pixel
Аудио: 48 kHz, AC3 Dolby Digital, 2/0 (L,R) ch, ~192.00 kbps avg
1. Бронетехника Вермахта (часть 1)
2. Бронетехника Вермахта (часть 2)
3. Бронетехника СССР
Код: Выделить всё
Танковый.музей.в.Кубинке.2014.XviD.DVDRip.alf62\Кубинка.(1.серия).Бронетехника.Вермахта.(часть.1).2014.XviD.DVDRip.alf62.avi
Формат                                   : AVI
Формат/Информация                        : Audio Video Interleave
Размер файла                             : 446 Мбайт
Продолжительность                        : 40 м.
Общий поток                              : 1559 Кбит/сек
Программа кодирования                    : VirtualDubMod 1.5.10.3 | www.virtualdub-fr.org || (build 2550/release)
Библиотека кодирования                   : VirtualDubMod build 2550/release

Видео
Идентификатор                            : 0
Формат                                   : MPEG-4 Visual
Профиль формата                          : Advanced Simple@L5
Параметр BVOP формата                    : 1
Параметр QPel формата                    : Нет
Параметр GMC формата                     : Без точки перехода
Параметр матрицы формата                 : Выборочная
Идентификатор кодека                     : XVID
Идентификатор кодека/Подсказка           : XviD
Продолжительность                        : 40 м.
Битрейт                                  : 1357 Кбит/сек
Ширина                                   : 720 пикселей
Высота                                   : 400 пикселей
Соотношение сторон                       : 16:9
Частота кадров                           : 25,000 кадров/сек
Цветовое пространство                    : YUV
Субдискретизация насыщенности            : 4:2:0
Битовая глубина                          : 8 бит
Тип развёртки                            : Прогрессивная
Метод сжатия                             : С потерями
Бит/(Пиксели*Кадры)                      : 0.189
Размер потока                            : 388 Мбайт (87%)
Библиотека кодирования                   : XviD 73

Аудио
Идентификатор                            : 1
Формат                                   : AC-3
Формат/Информация                        : Audio Coding 3
Расширение режима                        : CM (complete main)
Параметр Endianness формата              : Big
Идентификатор кодека                     : 2000
Продолжительность                        : 40 м.
Вид битрейта                             : Постоянный
Битрейт                                  : 192 Кбит/сек
Каналы                                   : 2 канала
Расположение каналов                     : Front: L R
Частота                                  : 48,0 КГц
Битовая глубина                          : 16 бит
Метод сжатия                             : С потерями
Размер потока                            : 54,9 Мбайт (12%)
Выравнивание                             : Разделение по промежуткам
Продолжительность промежутка             : 40  мс. (1,00 видеокадр)
Время предзагрузки промежутка            : 500  мс.




 
Не забывайте говорить Спасибо. Не уходите с раздачи!   
Торрент: Зарегистрирован [17 сен 2016, 14:03] Скачать торрент
Скачать торрент
[ Размер 17.28 КБ / Просмотров 99 ]
Статус:
Проверен
 
.torrent скачан: 1 раз
Хэш: e1c692e3019adc0c9d8ad1e2a8f2b31adc096669
Размер: 1.62 ГБ (1 741 549 568 байт)
Стать Автором раздачи
 
 
Раздал: 100 ГБ
Скачал: 0 байт
Ратио: Seed.
Сообщения: 197290
Зарегистрирован: 09 апр 2015, 20:00


  • Похожие торренты
    Ответы
    Просмотры
    Последнее сообщение

Вернуться в Разное / некондиция (документалистика и передачи)

Ресурс не предоставляет электронные версии произведений, а занимается лишь коллекционированием и каталогизацией ссылок, присылаемых и публикуемых на форуме нашими читателями. Если вы являетесь правообладателем какого-либо представленного материала и не желаете чтобы ссылка на него находилась в нашем каталоге, свяжитесь с нами и мы незамедлительно удалим её. Файлы для обмена на трекере предоставлены пользователями сайта, и администрация не несёт ответственности за их содержание. Просьба не заливать файлы, защищенные авторскими правами, а также файлы нелегального содержания!
cron