Свадебный угар / Mike and Dave Need Wedding Dates (2016) WEB-DL [H.264] [MP4|1280x534]

 
 Статистика раздачи 
Размер: 2.96 ГБ   |  Зарегистрирован: 16 сен 2016, 21:18   |   .torrent скачан: 0 раз
Сидеров: 1  [ 0 байт/сек ]     Личеров: 0  [ 0 байт/сек ]  
  

Свадебный угар / Mike and Dave Need Wedding Dates (2016) WEB-DL [H.264] [MP4|1280x534]

Сообщение explosiveone » 16 сен 2016, 21:18

Свадебный угар / Mike and Dave Need Wedding Dates (2016) WEB-DL

«They needed hot dates. They got hot messes»

Производство: США, 20th Century Fox Film Corporation
Жанр: Мелодрама, Комедия, Приключения

Режиссер: Джейк Зиманский
Актеры: Зак Эфрон, Адам Дивайн, Анна Кендрик, Обри Плаза, Стивен Рут, Стефани Фэраси, Стефани Бирд, Сэм Ричардсон, Элис Веттерлунд, Лавелл Кроуфорд

Описание:
Братья-тусовщики Майк и Дэйв дают в интернете объявление о поиске пар, чтобы отправиться на свадьбу сестры на Гавайях. Они надеются на дикий отрыв, но выбранный ими дуэт девушек оказывается совершенно неконтролируемым, готовым превратить праздник в настоящий ад.


Возраст: 18+ (зрителям, достигшим 18 лет. запрещено для детей)
Рейтинг MPAA: R (лицам до 17 лет обязательно присутствие взрослого)

Продолжительность: 01:38:49
Качество видео: WEB-DL
Перевод: Дублированный (iTunes)
Вид субтитров: Вшитые отключаемые
Язык субтитров: Английский

Видео: AVC/H.264 (Main@L3.1), 1280x534 (2.40:1), 4020 Кбит/сек
Аудио #1: AAC, 2 канала, 128 Кбит/сек - русский (дублированный)
Аудио #2: AAC, 2 канала, 128 Кбит/сек - английский
Код:
Код: Выделить всё
General
Complete name                            : C:\CREATE\264mod1\out\1\Mike.and.Dave.Need.Wedding.Dates.2016.720p.WEB-DL.AAC.x264.NNMclub.mp4
Format                                   : MPEG-4
Format profile                           : Base Media / Version 2
Codec ID                                 : mp42 (mp42/isom)
File size                                : 2.96 GiB
Duration                                 : 1h 38mn
Overall bit rate mode                    : Variable
Overall bit rate                         : 4 284 Kbps
Movie name                               : Mike and Dave Need Wedding Dates
Performer                                : Jake Szymanski
Director                                 : Jake Szymanski
Actor                                    : Zac Efron / Anna Kendrick / Adam DeVine / Aubrey Plaza / Stephen Root
Genre                                    : Comedy
ContentType                              : Short Film
Description                              : Hard-partying brothers Mike (Adam Devine) and Dave (Zac Efron) place an online ad to find the
Recorded date                            : 2016-07-08
Encoded date                             : UTC 2016-09-16 16:27:18
Tagged date                              : UTC 2016-09-16 16:42:46
Copyright                                : © 2016 Twentieth Century Fox Film Corporation
Cover                                    : Yes
Rating                                   : None
LongDescription                          : Hard-partying brothers Mike (Adam Devine) and Dave (Zac Efron) place an online ad to find the perfect dates (Anna Kendrick, Aubrey Plaza) for their sister's Hawaiian wedding. Hoping for a wild getaway, the boys instead find themselves outsmarted and out-partied by the uncontrollable duo.
HDVideo                                  : Yes
AppleStoreCountry                        : United States
AppleStoreCatalogID                      : 1125620138
ContentRating                            : mpaa|R|400|

Video
ID                                       : 1
Format                                   : AVC
Format/Info                              : Advanced Video Codec
Format profile                           :
Format settings, CABAC                   : No
Format settings, ReFrames                : 2 frames
Codec ID                                 : avc1
Codec ID/Info                            : Advanced Video Coding
Duration                                 : 1h 38mn
Bit rate                                 : 4 020 Kbps
Width                                    : 1 280 pixels
Height                                   : 534 pixels
Display aspect ratio                     : 2.40:1
Frame rate mode                          : Variable
Frame rate                               : 23.976 fps
Minimum frame rate                       : 22.727 fps
Maximum frame rate                       : 25.000 fps
Color space                              : YUV
Chroma subsampling                       : 4:2:0
Bit depth                                : 8 bits
Scan type                                : Progressive
Bits/(Pixel*Frame)                       : 0.245
Stream size                              : 2.78 GiB (94%)
Language                                 : English
Encoded date                             : UTC 2016-09-16 16:27:18
Tagged date                              : UTC 2016-09-16 16:35:57
Color range                              : Limited
Color primaries                          : BT.709
Transfer characteristics                 : BT.709
Matrix coefficients                      : BT.709
Menus                                    : 5

Audio #1
ID                                       : 2
Format                                   : AAC
Format/Info                              : Advanced Audio Codec
Format profile                           : LC
Codec ID                                 : 40
Duration                                 : 1h 38mn
Source duration                          : 1h 38mn
Bit rate mode                            : Variable
Bit rate                                 : 128 Kbps
Maximum bit rate                         : 131 Kbps
Channel(s)                               : 2 channels
Channel positions                        : Front: L R
Sampling rate                            : 48.0 KHz
Frame rate                               : 46.875 fps (1024 spf)
Compression mode                         : Lossy
Stream size                              : 90.2 MiB (3%)
Source stream size                       : 90.2 MiB (3%)
Language                                 : Russian
Default                                  : Yes
Alternate group                          : 1
Encoded date                             : UTC 2016-09-16 16:27:18
Tagged date                              : UTC 2016-09-16 16:35:57

Audio #2
ID                                       : 3
Format                                   : AAC
Format/Info                              : Advanced Audio Codec
Format profile                           : LC
Codec ID                                 : 40
Duration                                 : 1h 38mn
Source duration                          : 1h 38mn
Bit rate mode                            : Variable
Bit rate                                 : 128 Kbps
Maximum bit rate                         : 132 Kbps
Channel(s)                               : 2 channels
Channel positions                        : Front: L R
Sampling rate                            : 48.0 KHz
Frame rate                               : 46.875 fps (1024 spf)
Compression mode                         : Lossy
Stream size                              : 90.2 MiB (3%)
Source stream size                       : 90.2 MiB (3%)
Language                                 : English
Default                                  : No
Alternate group                          : 1
Encoded date                             : UTC 2016-09-16 16:27:18
Tagged date                              : UTC 2016-09-16 16:35:57

Text
ID                                       : 4
Format                                   : Timed Text
Muxing mode                              : sbtl
Codec ID                                 : tx3g
Duration                                 : 1h 35mn
Bit rate mode                            : Variable
Bit rate                                 : 108 bps
Stream size                              : 75.8 KiB (0%)
Language                                 : English
Default                                  : Yes
Forced                                   : No
Alternate group                          : 2
Encoded date                             : UTC 2016-09-16 16:27:18
Tagged date                              : UTC 2016-09-16 16:35:57

Menu
ID                                       : 5
Codec ID                                 : text
Duration                                 : 1h 38mn
Language                                 : English
Encoded date                             : UTC 2016-09-16 16:35:57
Tagged date                              : UTC 2016-09-16 16:35:57
Menu For                                 : 1
00:00:00.000                             : 1
00:03:38.510                             : 2
00:08:11.824                             : 3
00:11:25.100                             : 4
00:17:28.338                             : 5
00:22:32.475                             : 6
00:27:21.430                             : 7
00:31:28.176                             : 8
00:35:22.201                             : 9
00:38:16.208                             : 10
00:41:25.438                             : 11
00:44:24.533                             : 12
00:50:21.806                             : 13
00:54:11.827                             : 14
00:56:52.654                             : 15
01:01:15.124                             : 16
01:04:43.207                             : 17
01:08:23.051                             : 18
01:12:27.879                             : 19
01:16:32.331                             : 20
01:21:07.606                             : 21
01:25:29.534                             : 22
01:28:44.979                             : 23
01:33:50.075                             : 24
Bit rate mode                            : VBR

Скриншоты:





Время раздачи: 24/7 (круглосуточно) (до появления первых 3-5 скачавших)
 
Не забывайте говорить Спасибо. Не уходите с раздачи!   
Торрент: Зарегистрирован [16 сен 2016, 21:18] Для скачивания .torrent
необходима регистрация
Или скачать с помощью
MediaGet
Статус:
Проверен
 
.torrent скачан: 0 раз
Хэш: a8da6371617592b878c03474a883ef54f1f283c8
Размер: 2.96 ГБ (3 175 002 776 байт)
Стать Автором раздачи
 
 
Раздал: 100 ГБ
Скачал: 0 байт
Ратио: Seed.
Сообщения: 94021
Зарегистрирован: 09 апр 2015, 22:31


  • Похожие торренты
    Ответы
    Просмотры
    Последнее сообщение

Вернуться в Видео для мобильных устройств

Ресурс не предоставляет электронные версии произведений, а занимается лишь коллекционированием и каталогизацией ссылок, присылаемых и публикуемых на форуме нашими читателями. Если вы являетесь правообладателем какого-либо представленного материала и не желаете чтобы ссылка на него находилась в нашем каталоге, свяжитесь с нами и мы незамедлительно удалим её. Файлы для обмена на трекере предоставлены пользователями сайта, и администрация не несёт ответственности за их содержание. Просьба не заливать файлы, защищенные авторскими правами, а также файлы нелегального содержания!
cron