Абсолютный слух (сезон 8; Вып. 207-208) (Н. Тихонов) [2016, музыкальный, документальный, SATRip]

 
 Статистика раздачи 
Размер: 1.09 ГБ   |  Зарегистрирован: 16 сен 2016, 15:12   |   .torrent скачан: 0 раз
Сидеров: 1  [ 0 байт/сек ]     Личеров: 0  [ 0 байт/сек ]  
  

Абсолютный слух (сезон 8; Вып. 207-208) (Н. Тихонов) [2016, музыкальный, документальный, SATRip]

Сообщение aLaVodka » 16 сен 2016, 15:12

Абсолютный слух (сезон 8; Вып. 207-208)

Дата/Год выпуска: 2016
Страна: Россия
Жанр: музыкальный, документальный
Продолжительность: 00:39:00
Перевод: Не требуется
Русские субтитры: нет

Режиссер: Н. Тихонов

Телеканал: Культура
Описание: Познавательный и яркий тележурнал рассчитан на широкую аудиторию, которой могут быть интересны самые разные музыкальные жанры и направления – от классики до популярной песни.

Ведущий Геннадий Янин.

В 2011 году программа "Абсолютный слух" была награждена дипломом участника финала Национального телевизионного конкурса ТЭФИ - 2011 в номинации "Музыкальная программа. Классика".

25 ноября 2010 года альманах "Абсолютный слух" был удостоен диплома Всероссийского фестиваля телевизионных программ и фильмов "ТелеПроФи" в номинации "Просветительская программа", "За редкий на федеральных каналах абсолютный слух, вкус и взгляд".

Доп. информация: SatRip от: lesik689
Любезно предоставлено клубом Феникс

качество: SATRip
формат: AVI
Видео: XviD
Аудио: AC3
General
Complete name : D:\Еще более старый файловый 2\Downloads (E)\Абсолютный слух-8\Absoljutny.sluh.1(207).avi
Format : AVI
Format/Info : Audio Video Interleave
File size : 558 MiB
Duration : 38mn 52s
Overall bit rate : 2 006 Kbps
Writing application : VirtualDubMod 1.5.10.2 (build 2542/release)
Writing library : VirtualDubMod build 2542/release

Video
ID : 0
Format : MPEG-4 Visual
Format profile : Advanced Simple@L5
Format settings, BVOP : 2
Format settings, QPel : No
Format settings, GMC : No warppoints
Format settings, Matrix : Default (MPEG)
Codec ID : XVID
Codec ID/Hint : XviD
Duration : 38mn 52s
Bit rate : 1 804 Kbps
Width : 704 pixels
Height : 528 pixels
Display aspect ratio : 5:4
Original display aspect rat : 4:3
Frame rate : 25.000 fps
Color space : YUV
Chroma subsampling : 4:2:0
Bit depth : 8 bits
Scan type : Progressive
Compression mode : Lossy
Bits/(Pixel*Frame) : 0.194
Stream size : 502 MiB (90%)
Writing library : XviD 73

Audio
ID : 1
Format : AC-3
Format/Info : Audio Coding 3
Mode extension : CM (complete main)
Format settings, Endianness : Big
Codec ID : 2000
Duration : 38mn 52s
Bit rate mode : Constant
Bit rate : 192 Kbps
Channel(s) : 2 channels
Channel positions : Front: L R
Sampling rate : 48.0 KHz
Frame rate : 31.250 fps (1536 spf)
Compression mode : Lossy
Stream size : 53.4 MiB (10%)
Alignment : Aligned on interleaves
Interleave, duration : 40 ms (1.00 video frame)
Interleave, preload duratio : 512 ms
Сюжет о народном артисте СССР Владимире Васильеве. Его талант танцовщика многогранен и не перестает удивлять ценителей искусства. Создав целую галерею образов на балетной сцене, он предстает перед публикой в амплуа хореографа, режиссера, педагога, художника, писателя и поэта. Возможно, главный секрет его творчества заключен в постоянном недовольстве собой. "Я всегда был недоволен тем, что делаю, - говорит артист, - и мне казалось, что я мог бы сделать гораздо лучше. И что самого главного в жизни я еще не сделал…".

"Dies irae" - "День гнева" - одно из самых знаменитых католических песнопений. Латинские стихи, описывающие картину Страшного суда, много веков приводили грешников в трепет. Его аскетичный мотив сыграл большую роль в истории музыки. Он присутствует в сотнях партитур, написанных в совершенно разных исторических условиях и в разных стилях.

Современные пародисты нередко высмеивают политиков, литераторов, актеров и музыкантов. Был такой музыкальный пародист и в XIX веке. Его имя - Модест Петрович Мусоргский! Романс "Раёк" стал едкой сатирой на тех музыкантов, которые недооценивали роли русских традиций в истории отечественной музыки. Как утверждал знаменитый критик В. Стасов, над музыкальным памфлетом Мусоргского "хохотали до слез даже сами осмеянные".

Видео: 704x528 (1.33:1) 25 fps XviD MPEG-4 1804 kbps avg 0.19 bit/pixel
Аудио: 48 kHz AC3 Dolby Digital 2/0 (L,R) ch 192 kbps

Скриншоты
Сочинения Кароля Шимановского все чаще звучат на концертных и оперных сценах мира. Маэстро Саймон Рэттл, записавший все оркестровые опусы Шимановского, утверждает, что время этого композитора наступило именно теперь, так как любой современный человек может найти в его музыке что-то "свое". О творчестве и личности Кароля Шимановского рассказывает историк музыки, доктор искусствоведения, профессор М. Яницка-Слыш (г. Краков). Зрители программы побывают в городе Закопане в Доме-музее композитора.

"Мой брат Микаэль заявлял, что я родился 31 марта. Он не хотел, чтобы люди говорили, что в этот мир я пришел "апрельским дураком", - шутил Йозеф Гайдн. Сам композитор предпочитал праздновать свой день рождения 31 марта, тогда как в свидетельстве о рождении великого венского классика указывалась другая дата - 1 апреля. Этот день, день шутки и розыгрыша, стал весьма символичным в творчестве Гайдна. Он обладал жизнерадостным характером и был очень остроумен, что не могло не найти отражения в его опусах.

Жанру концерта для солирующего инструмента с оркестром отдавали дань многие композиторы. Таких концертов, написанных для фортепиано, скрипки, виолончели и других инструментов, - не счесть. И лишь один "инструмент" (самый распространенный и самый совершенный), а именно человеческий голос, композиторы обходили стороной. Одно из редких исключений - Концерт для голоса с оркестром, созданный Рейнгольдом Глиэром в суровые годы Великой Отечественной войны.

Видео: 704x528 (1.33:1) 25 fps XviD MPEG-4 1804 kbps avg 0.19 bit/pixel
Аудио: 48 kHz AC3 Dolby Digital 2/0 (L,R) ch 192 kbps
Скриншоты
16.09.2016 добавлен выпуск 208 от 14.09.2016
 
Не забывайте говорить Спасибо. Не уходите с раздачи!   
Торрент: Зарегистрирован [16 сен 2016, 15:12] Для скачивания .torrent
необходима регистрация
Или скачать с помощью
MediaGet
Статус:
Проверен
 
.torrent скачан: 0 раз
Хэш: c7b9f083a9ac87ed9f16a6660165baad887104b4
Размер: 1.09 ГБ (1 171 884 032 байт)
Стать Автором раздачи
 
 
Раздал: 100 ГБ
Скачал: 0 байт
Ратио: Seed.
Сообщения: 188762
Зарегистрирован: 09 апр 2015, 20:00


  • Похожие торренты
    Ответы
    Просмотры
    Последнее сообщение

Вернуться в Документальные фильмы и телепередачи о музыке (в том числе биографии)

Ресурс не предоставляет электронные версии произведений, а занимается лишь коллекционированием и каталогизацией ссылок, присылаемых и публикуемых на форуме нашими читателями. Если вы являетесь правообладателем какого-либо представленного материала и не желаете чтобы ссылка на него находилась в нашем каталоге, свяжитесь с нами и мы незамедлительно удалим её. Файлы для обмена на трекере предоставлены пользователями сайта, и администрация не несёт ответственности за их содержание. Просьба не заливать файлы, защищенные авторскими правами, а также файлы нелегального содержания!
cron