Птаха / Birdy (1984) WEB-DLRip [H.264] Кармен Видео, РТР [MP4|1024x576]

 
 Статистика раздачи 
Размер: 2.09 ГБ   |  Зарегистрирован: 16 сен 2016, 11:15   |   .torrent скачан: 0 раз
Сидеров: 1  [ 0 байт/сек ]     Личеров: 0  [ 0 байт/сек ]  
  

Птаха / Birdy (1984) WEB-DLRip [H.264] Кармен Видео, РТР [MP4|1024x576]

Сообщение explosiveone » 16 сен 2016, 11:15

Птаха / Birdy (1984) WEB-DLRip Кармен Видео, РТР

«A soaring experience unlike anything you've ever seen before»

Производство: США, TriStar Pictures
Жанр: Драма, Военный

Режиссер: Алан Паркер
Актеры: Мэттью Модайн, Николас Кейдж, Джон Харкинс, Сэнди Бэрон, Карен Янг, Бруно Кёрби, Нэнси Фиш, Джордж Бак, Долорес Сейдж, Пэт Райан

Описание:
Фильм снят по одноименному роману-бестселлеру Уильяма Уортона о дружбе двух несхожих юношей - ранимого, впечатлительного Птахи и задиристого весельчака Эла. Они противоположности, но есть между ними и общее. Мясорубка Вьетнама сделает их другими людьми.

Эл не сможет уже быть таким беззаботным весельчаком, а Птаха и вовсе уйдет в себя, «двинется» рассудком, возомнив себя птицей. Ради их прежней дружбы, Эл должен достучаться до своего друга, вернуть ему здравый рассудок, вытащить человека из птичьей клетки, в которую тот добровольно заключил себя, прячась от ужасов войны.


Возраст: 16+ (зрителям, достигшим 16 лет)
Рейтинг MPAA: R (лицам до 17 лет обязательно присутствие взрослого)

Продолжительность: 02:00:08
Качество видео: WEB-DLRip
Перевод: Двуголосый закадровый (Кармен Видео), Многоголосый закадровый (РТР)
Вид субтитров: Вшитые отключаемые
Язык субтитров: Русский, Английский

Видео: AVC/H.264 (Main@L3.1), 1024x576 (16:9), 2100 Кбит/сек
Аудио #1: AAC, 2 канала, 128 Кбит/сек - русский (двуголосый закадровый)
Аудио #2: AAC, 2 канала, 128 Кбит/сек - русский (многоголосый закадровый)
Аудио #3: AAC, 2 канала, 128 Кбит/сек - английский
Код:
Код: Выделить всё
General
Complete name                            : C:\CREATE\264mod1\out\1\Birdy.1984.576p.WEB-DLRip.AAC.x264.NNMclub.mp4
Format                                   : MPEG-4
Format profile                           : Base Media / Version 2
Codec ID                                 : mp42 (mp42/isom)
File size                                : 2.09 GiB
Duration                                 : 2h 0mn
Overall bit rate mode                    : Variable
Overall bit rate                         : 2 494 Kbps
Movie name                               : Birdy (1984)
Performer                                : Alan Parker
Director                                 : Alan Parker
Actor                                    : Nicolas Cage / Matthew Modine / Sandy Baron / John Harkins / Bruno Kirby
Producer                                 : Alan Marshall
Genre                                    : Drama
ContentType                              : Short Film
Description                              : Universally acclaimed for their performances, Nicolas Cage and Matthew Modine star in Alan Parker's "Birdy." Telling the story of an emotionally disturbed Vietnam Veteran, this deeply moving film is based on the fascinating novel by William Wharton.
Recorded date                            : 1984-12-21
Encoded date                             : UTC 2016-09-15 09:35:08
Tagged date                              : UTC 2016-09-15 09:56:43
Copyright                                : © 1984 TriStar Pictures, Inc
Cover                                    : Yes
Rating                                   : None
LongDescription                          : Universally acclaimed for their performances, Nicolas Cage and Matthew Modine star in Alan Parker's "Birdy." Telling the story of an emotionally disturbed Vietnam Veteran, this deeply moving film is based on the fascinating novel by William Wharton.
AppleStoreCountry                        : United States
AppleStoreCatalogID                      : 294722142
ContentRating                            : mpaa|R|400|

Video
ID                                       : 1
Format                                   : AVC
Format/Info                              : Advanced Video Codec
Format profile                           :
Format settings, CABAC                   : No
Format settings, ReFrames                : 3 frames
Codec ID                                 : avc1
Codec ID/Info                            : Advanced Video Coding
Duration                                 : 2h 0mn
Bit rate                                 : 2 100 Kbps
Width                                    : 1 024 pixels
Height                                   : 576 pixels
Display aspect ratio                     : 16:9
Frame rate mode                          : Variable
Frame rate                               : 23.976 (24000/1001) fps
Minimum frame rate                       : 23.810 fps
Maximum frame rate                       : 24.390 fps
Color space                              : YUV
Chroma subsampling                       : 4:2:0
Bit depth                                : 8 bits
Scan type                                : Progressive
Bits/(Pixel*Frame)                       : 0.148
Stream size                              : 1.76 GiB (84%)
Writing library                          : x264 core 148 r2705+54 9f484c1 t_mod_Custom [8-bit@all X86]
Encoding settings                        : cabac=0 / ref=3 / deblock=1:-3:-3 / analyse=0x1:0x111 / me=umh / subme=7 / psy=1 / fade_compensate=0.00 / psy_rd=1.00:0.15 / mixed_ref=1 / me_range=32 / chroma_me=1 / trellis=2 / 8x8dct=0 / cqm=0 / deadzone=21,11 / fast_pskip=0 / chroma_qp_offset=-3 / threads=12 / lookahead_threads=2 / sliced_threads=0 / nr=0 / decimate=0 / interlaced=0 / bluray_compat=0 / constrained_intra=0 / fgo=0 / bframes=3 / b_pyramid=1 / b_adapt=2 / b_bias=0 / direct=3 / weightb=1 / open_gop=0 / weightp=2 / keyint=240 / keyint_min=23 / scenecut=40 / intra_refresh=0 / rc_lookahead=50 / rc=2pass / mbtree=1 / bitrate=2100 / ratetol=1.0 / qcomp=0.60 / qpmin=0:0:0 / qpmax=69:69:69 / qpstep=4 / cplxblur=20.0 / qblur=0.5 / vbv_maxrate=14000 / vbv_bufsize=14000 / nal_hrd=none / filler=0 / ip_ratio=1.30 / aq=3:0.80 / aq-sensitivity=10.00 / aq-factor=1.00:1.00:1.00 / aq2=1:0.80 / aq2-sensitivity=13.00 / aq2-factor=1.00:1.00:1.00 / aq3=4:[0.50:0.50]:[0.50:0.50]:[0.50:0.50]:[0.50:0.50] / aq3-sensitivity=10.00 / aq3-factor=[1.00:1.00]:[1.00:1.00]:[1.00:1.00] / aq3-boundary=192:64:24
Encoded date                             : UTC 2016-09-15 09:35:08
Tagged date                              : UTC 2016-09-15 09:42:03
Color range                              : Limited
Matrix coefficients                      : BT.709
Menus                                    : 7

Audio #1
ID                                       : 2
Format                                   : AAC
Format/Info                              : Advanced Audio Codec
Format profile                           : LC
Codec ID                                 : 40
Duration                                 : 2h 0mn
Source duration                          : 2h 0mn
Bit rate mode                            : Variable
Bit rate                                 : 128 Kbps
Maximum bit rate                         : 130 Kbps
Channel(s)                               : 2 channels
Channel positions                        : Front: L R
Sampling rate                            : 48.0 KHz
Frame rate                               : 46.875 fps (1024 spf)
Compression mode                         : Lossy
Stream size                              : 110 MiB (5%)
Source stream size                       : 110 MiB (5%)
Language                                 : Russian
Default                                  : Yes
Alternate group                          : 1
Encoded date                             : UTC 2016-09-15 09:35:08
Tagged date                              : UTC 2016-09-15 09:42:03

Audio #2
ID                                       : 3
Format                                   : AAC
Format/Info                              : Advanced Audio Codec
Format profile                           : LC
Codec ID                                 : 40
Duration                                 : 2h 0mn
Source duration                          : 2h 0mn
Bit rate mode                            : Variable
Bit rate                                 : 128 Kbps
Maximum bit rate                         : 132 Kbps
Channel(s)                               : 2 channels
Channel positions                        : Front: L R
Sampling rate                            : 48.0 KHz
Frame rate                               : 46.875 fps (1024 spf)
Compression mode                         : Lossy
Stream size                              : 110 MiB (5%)
Source stream size                       : 110 MiB (5%)
Language                                 : Russian
Default                                  : No
Alternate group                          : 1
Encoded date                             : UTC 2016-09-15 09:35:08
Tagged date                              : UTC 2016-09-15 09:42:03

Audio #3
ID                                       : 4
Format                                   : AAC
Format/Info                              : Advanced Audio Codec
Format profile                           : LC
Codec ID                                 : 40
Duration                                 : 2h 0mn
Source duration                          : 2h 0mn
Bit rate mode                            : Variable
Bit rate                                 : 128 Kbps
Maximum bit rate                         : 131 Kbps
Channel(s)                               : 2 channels
Channel positions                        : Front: L R
Sampling rate                            : 48.0 KHz
Frame rate                               : 46.875 fps (1024 spf)
Compression mode                         : Lossy
Stream size                              : 110 MiB (5%)
Source stream size                       : 110 MiB (5%)
Language                                 : English
Default                                  : No
Alternate group                          : 1
Encoded date                             : UTC 2016-09-15 09:35:08
Tagged date                              : UTC 2016-09-15 09:42:03

Text #1
ID                                       : 5
Format                                   : Timed Text
Muxing mode                              : sbtl
Codec ID                                 : tx3g
Duration                                 : 1h 56mn
Bit rate mode                            : Variable
Bit rate                                 : 71 bps
Stream size                              : 61.1 KiB (0%)
Language                                 : Russian
Default                                  : Yes
Forced                                   : No
Alternate group                          : 2
Encoded date                             : UTC 2016-09-15 09:35:08
Tagged date                              : UTC 2016-09-15 09:42:03

Text #2
ID                                       : 6
Format                                   : Timed Text
Muxing mode                              : sbtl
Codec ID                                 : tx3g
Duration                                 : 1h 56mn
Bit rate mode                            : Variable
Bit rate                                 : 55 bps
Stream size                              : 47.2 KiB (0%)
Language                                 : English
Default                                  : No
Forced                                   : No
Alternate group                          : 2
Encoded date                             : UTC 2016-09-15 09:35:08
Tagged date                              : UTC 2016-09-15 09:42:03

Menu
ID                                       : 7
Codec ID                                 : text
Duration                                 : 2h 0mn
Language                                 : English
Encoded date                             : UTC 2016-09-15 09:42:03
Tagged date                              : UTC 2016-09-15 09:42:03
Menu For                                 : 1
00:00:00.000                             : START
00:02:42.000                             : AL COLUMBATO
00:07:49.000                             : BIRDY
00:10:32.000                             : PIGEONS
00:13:34.000                             : BIRDMEN OF PHILLY
00:23:05.000                             : VISITING HIS FRIEND
00:26:40.000                             : NURSE HANNAH
00:29:10.000                             : OUT OF BUSINESS
00:33:29.000                             : '53 FORD
00:38:14.000                             : HUNT'S PIER
00:43:11.000                             : JAILBIRDS
00:46:48.000                             : HEARTBREAKER
00:48:59.000                             : NOT HIS CAR TO SELL
01:01:48.000                             : THEORY OF FLIGHT
01:06:27.000                             : FLAPPING POWER
01:08:11.000                             : ICARUS
01:10:20.000                             : "A SMILE'S A SMILE"
01:14:38.000                             : JOE SAGESSA
01:19:59.000                             : CAT-ASTROPHE
01:22:16.000                             : TOUGH LOVE
01:26:35.999                             : "PERTA & I BECOME ONE."
01:30:05.000                             : THE PROM
01:31:56.000                             : DORIS MAKES HER MOVE
01:36:46.000                             : DREAM FLIGHT
01:45:46.000                             : CRASH LANDING
01:50:04.000                             : NOT LEAVING HIM
01:54:13.000                             : "HE TALKED!"
01:55:39.000                             : ON THE ROOF
Bit rate mode                            : VBR

Скриншоты:


Время раздачи: 24/7 (круглосуточно) (до появления первых 3-5 скачавших)
 
Не забывайте говорить Спасибо. Не уходите с раздачи!   
Торрент: Зарегистрирован [16 сен 2016, 11:15] Для скачивания .torrent
необходима регистрация
Или скачать с помощью
MediaGet
Статус:
Проверен
 
.torrent скачан: 0 раз
Хэш: c840b1ca6530dd12448287590a010632bcafd25d
Размер: 2.09 ГБ (2 246 963 572 байт)
Стать Автором раздачи
 
 
Раздал: 100 ГБ
Скачал: 0 байт
Ратио: Seed.
Сообщения: 94065
Зарегистрирован: 09 апр 2015, 22:31


  • Похожие торренты
    Ответы
    Просмотры
    Последнее сообщение

Вернуться в Видео для мобильных устройств

Ресурс не предоставляет электронные версии произведений, а занимается лишь коллекционированием и каталогизацией ссылок, присылаемых и публикуемых на форуме нашими читателями. Если вы являетесь правообладателем какого-либо представленного материала и не желаете чтобы ссылка на него находилась в нашем каталоге, свяжитесь с нами и мы незамедлительно удалим её. Файлы для обмена на трекере предоставлены пользователями сайта, и администрация не несёт ответственности за их содержание. Просьба не заливать файлы, защищенные авторскими правами, а также файлы нелегального содержания!
cron