Исчезновение Харухи Судзумии / Suzumiya Haruhi no Shoushitsu / The Disappearance of Haruhi Suzumiya (2010) HDRip [H.264] [MP4|1024x576]

 
 Статистика раздачи 
Размер: 2.38 ГБ   |  Зарегистрирован: 12 сен 2016, 22:42   |   .torrent скачан: 0 раз
Сидеров: 1  [ 0 байт/сек ]     Личеров: 0  [ 0 байт/сек ]  
  

Исчезновение Харухи Судзумии / Suzumiya Haruhi no Shoushitsu / The Disappearance of Haruhi Suzumiya (2010) HDRip [H.264] [MP4|1024x576]

Сообщение explosiveone » 12 сен 2016, 22:42

Исчезновение Харухи Судзумии / Suzumiya Haruhi no Shoushitsu / The Disappearance of Haruhi Suzumiya (2010) HDRip

Производство: Япония / Kadokawa Pictures, Kyoto Animation, The Klock Worx Company Ltd., Lantis
Жанр: Аниме, Фантастика, Комедия, Приключения, Драма

Режиссер: Исихара Тацуя, Ясухиро Такэмото
Актеры: Хирано Ая, Сугита Томокадзу, Тихара Минори, Гото Юко, Оно Дайсукэ

Описание:
На дворе стояло промозглое зимнее утро. Самый обыкновенный старшеклассник Кён проводил утренние процедуры без каких-либо отклонений от нормы. Будильник был все таким же наглым и бессердечным, лицо в зеркале над раковиной отнюдь не лучилось бодростью и весельем, а возвышенность, на которой располагалась школа, по-прежнему хладнокровно испытывала школьников на выносливость.
И все же что-то в тот день было не так: странности начались с обмолвки Танигути о вещах, весьма озадачивших Кёна... Впрочем, наш герой с легкостью списал недоразумение на тараканов в голове давнего приятеля, коих по обыкновению водилось у него немало. Но самое интересное ждало его впереди. Придя в школу, юный ворчун с удивлением обнаружил на месте Харухи Судзумии... Рёко Асакуру. О том, что еще вчера с ними училась совсем другая барышня, помнил, конечно, только главный герой.
Да, вы все правильно поняли: главным событием того памятного дня стала пропажа юной богини… Чем закончилась вся эта жутко таинственная история, узнаете сами, посмотрев новое творение Kyoto Animation!


Возраст: 16+ (зрителям, достигшим 16 лет)

Продолжительность: 02:41:48
Качество видео: HDRip
Перевод: Дублированный
Вид субтитров: Отсутствуют

Видео: AVC/H.264 (Main@L3.1), 1024x576 (16:9), 1850 Кбит/сек
Аудио #1: AAC, 2 канала, 128 Кбит/сек - русский (дублированный)
Аудио #2: AAC, 2 канала, 128 Кбит/сек - японский (оригинальный)
Код:
Код: Выделить всё
General
Complete name                            : C:\CREATE\264mod1\out\1\The.Disappearance.of.Haruh.Suzumiya.2010.576p.HDRip.AAC.x264.NNMclub.mp4
Format                                   : MPEG-4
Format profile                           : Base Media / Version 2
Codec ID                                 : mp42 (mp42/isom)
File size                                : 2.38 GiB
Duration                                 : 2h 43mn
Overall bit rate mode                    : Variable
Overall bit rate                         : 2 084 Kbps
Movie name                               : The Disappearance of Haruhi Suzumiya
Performer                                : Yasuhiro Takemoto, Tatsuya Ishihara
Composer                                 : Satoru Kousaki
Director                                 : Yasuhiro Takemoto / Tatsuya Ishihara
Actor                                    : Sayaka Aoki / Minori Chihara / Yuko Goto / Aya Hirano / Megumi Matsumoto / Yuki Matsuoka / Daisuke Ono / Minoru Shiraishi / Tomokazu Sugita / Natsuko Kuwatani
Screenplay by                            : Shoko Ikeda / Noizi Ito / Fumihiko Shimo
Producer                                 : Hideaki Hatta / Atsushi Itou
Production studio                        : Kyoto Animation, Lantis, Kadokawa Shoten Publishing Co.
Genre                                    : Animation, Comedy, Mystery, Romance, Science Fiction, Drama
ContentType                              : Short Film
Description                              : It is mid-december, and SOS Brigade chief Haruhi Suzumiya announces that the Brigade is going to hold a Christmas party in their clubroom, with Japanese hotpot for dinner. The brigade members Kyon, Yuki Nagato, Mikuru Asahina and Itsuki Koizumi start preparing everything for the party, such as costumes and decorations. But a couple of days later, Kyon arrives at school only to find that Haruhi is missing. Not only that, but Mikuru claims she has never known Kyon before, Koizumi is also missing, and Yuki has become the sole member of the literature club. The SOS Brigade seems to have never existed, nor has Haruhi Suzumiya. No one in the school has ever heard about her… except for Kyon.
Recorded date                            : 2010-02-05
Encoded date                             : UTC 2016-09-11 19:46:02
Tagged date                              : UTC 2016-09-11 19:56:01
Cover                                    : Yes
Rating                                   : None
LongDescription                          : It is mid-december, and SOS Brigade chief Haruhi Suzumiya announces that the Brigade is going to hold a Christmas party in their clubroom, with Japanese hotpot for dinner. The brigade members Kyon, Yuki Nagato, Mikuru Asahina and Itsuki Koizumi start preparing everything for the party, such as costumes and decorations. But a couple of days later, Kyon arrives at school only to find that Haruhi is missing. Not only that, but Mikuru claims she has never known Kyon before, Koizumi is also missing, and Yuki has become the sole member of the literature club. The SOS Brigade seems to have never existed, nor has Haruhi Suzumiya. No one in the school has ever heard about her… except for Kyon.

Video
ID                                       : 1
Format                                   : AVC
Format/Info                              : Advanced Video Codec
Format profile                           :
Format settings, CABAC                   : No
Format settings, ReFrames                : 3 frames
Codec ID                                 : avc1
Codec ID/Info                            : Advanced Video Coding
Duration                                 : 2h 41mn
Bit rate                                 : 1 850 Kbps
Width                                    : 1 024 pixels
Height                                   : 576 pixels
Display aspect ratio                     : 16:9
Frame rate mode                          : Variable
Frame rate                               : 23.976 (24000/1001) fps
Minimum frame rate                       : 23.810 fps
Maximum frame rate                       : 24.390 fps
Color space                              : YUV
Chroma subsampling                       : 4:2:0
Bit depth                                : 8 bits
Scan type                                : Progressive
Bits/(Pixel*Frame)                       : 0.131
Stream size                              : 2.09 GiB (88%)
Writing library                          : x264 core 142 r2409+42 04be48a tMod [8-bit@4:2:0 X86_64]
Encoding settings                        : cabac=0 / ref=3 / deblock=1:0:0 / analyse=0x1:0x111 / me=umh / subme=7 / psy=1 / fade_compensate=0.00 / psy_rd=0.60:0.10 / mixed_ref=1 / me_range=32 / chroma_me=1 / trellis=2 / 8x8dct=0 / cqm=0 / deadzone=21,11 / fast_pskip=0 / chroma_qp_offset=-3 / threads=18 / lookahead_threads=3 / sliced_threads=0 / nr=0 / decimate=0 / interlaced=0 / bluray_compat=0 / constrained_intra=0 / fgo=0 / bframes=3 / b_pyramid=1 / b_adapt=2 / b_bias=0 / direct=3 / weightb=1 / open_gop=0 / weightp=2 / keyint=240 / keyint_min=23 / scenecut=40 / intra_refresh=0 / rc_lookahead=50 / rc=2pass / mbtree=1 / bitrate=1850 / ratetol=1.0 / qcomp=0.60 / qpmin=0:0:0 / qpmax=69:69:69 / qpstep=4 / cplxblur=20.0 / qblur=0.5 / vbv_maxrate=14000 / vbv_bufsize=14000 / nal_hrd=none / filler=0 / ip_ratio=1.40 / aq=1:0.60 / aq-sensitivity=10.00 / aq-factor=1.00:1.00:1.00 / aq2=1:0.60 / aq2-sensitivity=15.00 / aq2-factor=1.00:1.00:1.00 / aq3=2:[0.60:0.60]:[0.60:0.60]:[0.60:0.50]:[0.50:0.50] / aq3-sensitivity=10.00 / aq3-factor=[1.00:1.00]:[1.00:1.00]:[1.00:1.00] / aq3-boundary=192:64:24
Encoded date                             : UTC 2016-09-11 19:46:02
Tagged date                              : UTC 2016-09-11 19:56:01
Color range                              : Limited
Matrix coefficients                      : BT.709

Audio #1
ID                                       : 2
Format                                   : AAC
Format/Info                              : Advanced Audio Codec
Format profile                           : LC
Codec ID                                 : 40
Duration                                 : 2h 42mn
Bit rate mode                            : Variable
Bit rate                                 : 125 Kbps
Maximum bit rate                         : 199 Kbps
Channel(s)                               : 2 channels
Channel positions                        : Front: L R
Sampling rate                            : 48.0 KHz
Frame rate                               : 46.875 fps (1024 spf)
Compression mode                         : Lossy
Stream size                              : 146 MiB (6%)
Language                                 : Russian
Default                                  : Yes
Alternate group                          : 1
Encoded date                             : UTC 2016-09-11 19:46:02
Tagged date                              : UTC 2016-09-11 19:56:01

Audio #2
ID                                       : 3
Format                                   : AAC
Format/Info                              : Advanced Audio Codec
Format profile                           : LC
Codec ID                                 : 40
Duration                                 : 2h 43mn
Bit rate mode                            : Variable
Bit rate                                 : 118 Kbps
Maximum bit rate                         : 194 Kbps
Channel(s)                               : 2 channels
Channel positions                        : Front: L R
Sampling rate                            : 48.0 KHz
Frame rate                               : 46.875 fps (1024 spf)
Compression mode                         : Lossy
Stream size                              : 138 MiB (6%)
Language                                 : Japanese
Default                                  : No
Alternate group                          : 1
Encoded date                             : UTC 2016-09-11 19:46:02
Tagged date                              : UTC 2016-09-11 19:56:01

Скриншоты:


Время раздачи: 24/7 (круглосуточно) (до появления первых 3-5 скачавших)
 
Не забывайте говорить Спасибо. Не уходите с раздачи!   
Торрент: Зарегистрирован [12 сен 2016, 22:42] Для скачивания .torrent
необходима регистрация
Или скачать с помощью
MediaGet
Статус:
Проверен
 
.torrent скачан: 0 раз
Хэш: 6c3b844b215a69276848e62867c7174b8b3f5fa1
Размер: 2.38 ГБ (2 551 734 788 байт)
Стать Автором раздачи
 
 
Раздал: 100 ГБ
Скачал: 0 байт
Ратио: Seed.
Сообщения: 94032
Зарегистрирован: 09 апр 2015, 22:31


  • Похожие торренты
    Ответы
    Просмотры
    Последнее сообщение

Вернуться в Видео для мобильных устройств

Ресурс не предоставляет электронные версии произведений, а занимается лишь коллекционированием и каталогизацией ссылок, присылаемых и публикуемых на форуме нашими читателями. Если вы являетесь правообладателем какого-либо представленного материала и не желаете чтобы ссылка на него находилась в нашем каталоге, свяжитесь с нами и мы незамедлительно удалим её. Файлы для обмена на трекере предоставлены пользователями сайта, и администрация не несёт ответственности за их содержание. Просьба не заливать файлы, защищенные авторскими правами, а также файлы нелегального содержания!
cron