Пришельцы. Трилогия / Les Visiteurs La Trilogie (1993-2016) HDRip [H.264] Мосфильм-Мастер, ДВД-Групп, НТВ, ТНТ, Амальгама [MP4|1024x436@720x436]

 
 Статистика раздачи 
Размер: 4.8 ГБ   |  Зарегистрирован: 12 сен 2016, 22:42   |   .torrent скачан: 1 раз
Сидеров: 1  [ 0 байт/сек ]     Личеров: 0  [ 0 байт/сек ]  
  

Пришельцы. Трилогия / Les Visiteurs La Trilogie (1993-2016) HDRip [H.264] Мосфильм-Мастер, ДВД-Групп, НТВ, ТНТ, Амальгама [MP4|1024x436@720x436]

Сообщение explosiveone » 12 сен 2016, 22:42

Пришельцы. Трилогия / Les Visiteurs La Trilogie (1993-2016) HDRip Мосфильм-Мастер, ДВД-Групп, НТВ, ТНТ, Амальгама


Производство:
Франция, Gaumont, CineComic, France 3 Cinéma, Amigo Productions, Canal+, Ouille Productions, Nexus Factory
Жанр: Фантастика, Комедия

Режиссер: Жан-Мари Пуаре
Актеры: Кристиан Клавье, Жан Рено, Мюриэль Робен, Мари-Анн Шазель, Жан-Люк Карон, Патрик Бюржель, Эрик Аверлан, Армель, Пьер Виаль, Франк-Оливье Бонне

Описание:
Если Вы выпили волшебного снадобья и попали в средневековье не надейтесь на свои сотовый телефон и службу спасения: еще никому не удавалось вырваться из лап святой инквизиции. И вы не сможете вернуться обратно...
«Тот самый» качественный французский юмор, по которому скучали, блестящий актерский состав, пронизанный изящной иронией сценарий дают полное основание полагать, что современное прочтение культовых французских картин не оставит равнодушными ценителей жанра, поклонников легендарных актеров и всех любителей первоклассного европейского кино.

Продолжительность: 01:46:44 | 01:57:25 | 01:45:21
Перевод: Дублированный Мосфильм-Мастер, Многоголосый закадровый ДВД-Групп, НТВ, ТНТ, Амальгама
Вид субтитров: Вшитые отключаемые
Язык субтитров: Русский
Качество видео: HDRip

Видео: AVC/H.264 (Main@L3.1), 1024x436@720x436 (2.35:1) | 1024x436@720x428 (2.39:1), ~ 1700-1800 Кбит/сек
Аудио #1: AAC, 2 канала, 128 Кбит/сек - русский (дублированный)
Аудио #2: AAC, 2 канала, 128 Кбит/сек - русский (многоголосый закадровый)

Пришельцы / Les Visiteurs (1993) HDRip

«They Weren't Born Yesterday!»
Производство: Франция, Gaumont, Alpilles Productions, Amigo Productions, Canal+
Жанр: Фантастика, Фэнтези, Комедия

Режиссер: Жан-Мари Пуаре
Актеры: Кристиан Клавье, Жан Рено, Валери Лемерсье, Мари-Анн Шазель, Кристиан Бюжо, Изабель Нанти, Жерар Сети, Дидье Пэн, Жан-Поль Мюэль, Ариель Семенофф

Опиcание:
Франция 1122 год. Граф Годфруа де Монмирай став жертвой проклятия злой колдуньи, убивает отца своей невесты. Годфруа обращается за помощью к великому волшебнику Эвсебиусу, который предлагает графу отправитться по коридорам времени в прошлое и исправить свою ошибку.
Де Монмирай соглашается на это предложение, но из-за ошибки волшебника он и его слуга попадают в 90-е годы нашего времени. В ХХ веке их ждет много приключений и встреча со своими потомками...


Возраст: 16+ (зрителям, достигшим 16 лет)
Рейтинг MPAA: R (лицам до 17 лет обязательно присутствие взрослого)

Продолжительноcть: 01:46:44
Качество видео: HDRip
Перевод: Дублированный - киностудия "им. Горького", Многоголосый закадровый - ДВД-Групп, НТВ
Вид субтитров: Отсутствуют

Видео: AVC/H.264 (Main@L3.1), 1024x436@720x436 (2.35:1), 1700 Кбит/сек
Аудио #1: AAC, 2 канала, 128 Кбит/сек - русский (многоголосый закадровый - ДВД-Групп)
Аудио #2: AAC, 2 канала, 128 Кбит/сек - русский (дублированный)
Аудио #3: AAC, 2 канала, 128 Кбит/сек - русский (многоголосый закадровый - НТВ)
Код:
Код: Выделить всё
General
Complete name                            : C:\CREATE\264mod1\out\Les Visiteurs La Trilogie (1993-2016).576p.NNMclub\Les.Visiteurs.1993.576p.HDRip.AAC.x264.NNMclub.mp4
Format                                   : MPEG-4
Format profile                           : Base Media
Codec ID                                 : isom (isom/avc1)
File size                                : 1.56 GiB
Duration                                 : 1h 46mn
Overall bit rate mode                    : Variable
Overall bit rate                         : 2 099 Kbps
Movie name                               : Пришельцы
Performer                                : Jean-Marie Poiré
Director                                 : Jean-Marie Poiré
Actor                                    : Jean Reno (Godefroy de Papincourt) / Valérie Lemercier (Frénégonde de Pouille / Béatrice de Montmirail) / Christian Clavier (Jacquouille la Fripouille / Jacquard) / Marie-Anne Chazel (Ginette la clocharde) / Christian Bujeau (Jean-Pierre) / Isabelle Nanty (Fabienne Morlot) / Gérard Séty (Edgar Bernay) / Didier Pain (Louis VI le Gros) / Jean-Paul Muel (Marechal des Logis Gibon) / Arielle Sémenoff (Jacqueline) / Michel Peyrelon (Edouard Bernay) / Pierre Vial (Wizard Eusebius / Monsieur Ferdinand) / François Lalande (Priest) / Didier Bénureau (Intern Beauvin) / Frédéric Baptiste (Freddy)
Screenplay by                            : Christian Clavier / Jean-Marie Poiré
Producer                                 : Alain Terzian
Genre                                    : Comedy
ContentType                              : Short Film
Description                              : Франция 1122 год. Граф Годфруа де Монмирай став жертвой проклятия злой колдуньи, убивает отца своей невесты. Годфруа обращается за помощью к великому волшебнику Эвсебиусу, который предлагает графу отправитться по коридорам времени в прошлое и исправи
Recorded date                            : UTC 1993-01-01 08:00:00
Encoded date                             : UTC 2016-08-08 20:11:25
Tagged date                              : UTC 2016-08-08 20:33:43
Cover                                    : Yes
Rating                                   : None
Title/Sort                               : Les visiteurs
LongDescription                          : En 1122, le sort d'une sinistre sorcière et la distraction d'un enchanteur propulsent un valeureux guerrier et son écuyer dans une époque démente, la nôtre ! Voilà l'épreuve qui attend Godefroy de Montmirail (Jean Reno) et Jacquouille la Fripouille (Christian Clavier) : affronter une époque incompréhensible à leurs yeux, essayer de communiquer en vieux français avec ses habitants, et surtout tenter de retourner chez eux par tous les moyens ! Un des plus grand succès du cinéma français de ces 25 dernières années !
ContentRating                            : mpaa|G|100|

Video
ID                                       : 1
Format                                   : AVC
Format/Info                              : Advanced Video Codec
Format profile                           : Main@L3
Format settings, CABAC                   : No
Format settings, ReFrames                : 4 frames
Codec ID                                 : avc1
Codec ID/Info                            : Advanced Video Coding
Duration                                 : 1h 46mn
Bit rate                                 : 1 700 Kbps
Maximum bit rate                         : 8 488 Kbps
Width                                    : 720 pixels
Height                                   : 436 pixels
Display aspect ratio                     : 2.35:1
Frame rate mode                          : Constant
Frame rate                               : 24.000 fps
Color space                              : YUV
Chroma subsampling                       : 4:2:0
Bit depth                                : 8 bits
Scan type                                : Progressive
Bits/(Pixel*Frame)                       : 0.226
Stream size                              : 1.27 GiB (81%)
Writing library                          : x264 core 148 r2705+54 9f484c1 t_mod_Custom [8-bit@all X86_64]
Encoding settings                        : cabac=0 / ref=3 / deblock=1:-1:-1 / analyse=0x1:0x131 / me=umh / subme=7 / psy=1 / fade_compensate=0.00 / psy_rd=1.00:0.10 / mixed_ref=1 / me_range=32 / chroma_me=1 / trellis=2 / 8x8dct=0 / cqm=0 / deadzone=21,11 / fast_pskip=0 / chroma_qp_offset=-3 / threads=12 / lookahead_threads=2 / sliced_threads=0 / nr=0 / decimate=0 / interlaced=0 / bluray_compat=0 / constrained_intra=0 / fgo=0 / bframes=3 / b_pyramid=2 / b_adapt=2 / b_bias=0 / direct=3 / weightb=1 / open_gop=0 / weightp=2 / keyint=240 / keyint_min=24 / scenecut=40 / intra_refresh=0 / rc_lookahead=40 / rc=2pass / mbtree=1 / bitrate=1700 / ratetol=1.0 / qcomp=0.60 / qpmin=0:0:0 / qpmax=69:69:69 / qpstep=4 / cplxblur=20.0 / qblur=0.5 / vbv_maxrate=10000 / vbv_bufsize=10000 / nal_hrd=none / filler=0 / ip_ratio=1.40 / aq=3:0.80 / aq-sensitivity=10.00 / aq-factor=1.00:1.00:1.00 / aq2=0 / aq3=3:[0.50:0.50]:[0.50:0.50]:[0.50:0.50]:[0.50:0.50] / aq3-sensitivity=10.00 / aq3-factor=[1.00:1.00]:[1.00:1.00]:[1.00:1.00] / aq3-boundary=192:64:24
Language                                 : English
Encoded date                             : UTC 2016-08-08 20:11:25
Tagged date                              : UTC 2016-08-08 20:11:46
Color range                              : Limited
Color primaries                          : BT.709
Matrix coefficients                      : BT.709

Audio #1
ID                                       : 2
Format                                   : AAC
Format/Info                              : Advanced Audio Codec
Format profile                           : LC
Codec ID                                 : 40
Duration                                 : 1h 46mn
Bit rate mode                            : Variable
Bit rate                                 : 128 Kbps
Maximum bit rate                         : 132 Kbps
Channel(s)                               : 2 channels
Channel positions                        : Front: L R
Sampling rate                            : 48.0 KHz
Frame rate                               : 46.875 fps (1024 spf)
Compression mode                         : Lossy
Stream size                              : 97.7 MiB (6%)
Language                                 : Russian
Default                                  : Yes
Alternate group                          : 1
Encoded date                             : UTC 2016-08-08 20:11:35
Tagged date                              : UTC 2016-08-08 20:11:46

Audio #2
ID                                       : 3
Format                                   : AAC
Format/Info                              : Advanced Audio Codec
Format profile                           : LC
Codec ID                                 : 40
Duration                                 : 1h 46mn
Bit rate mode                            : Variable
Bit rate                                 : 128 Kbps
Maximum bit rate                         : 132 Kbps
Channel(s)                               : 2 channels
Channel positions                        : Front: L R
Sampling rate                            : 48.0 KHz
Frame rate                               : 46.875 fps (1024 spf)
Compression mode                         : Lossy
Stream size                              : 97.7 MiB (6%)
Language                                 : Russian
Default                                  : No
Alternate group                          : 1
Encoded date                             : UTC 2016-08-08 20:11:39
Tagged date                              : UTC 2016-08-08 20:11:46

Audio #3
ID                                       : 4
Format                                   : AAC
Format/Info                              : Advanced Audio Codec
Format profile                           : LC
Codec ID                                 : 40
Duration                                 : 1h 46mn
Bit rate mode                            : Variable
Bit rate                                 : 128 Kbps
Maximum bit rate                         : 133 Kbps
Channel(s)                               : 2 channels
Channel positions                        : Front: L R
Sampling rate                            : 48.0 KHz
Frame rate                               : 46.875 fps (1024 spf)
Compression mode                         : Lossy
Stream size                              : 97.7 MiB (6%)
Language                                 : French
Default                                  : No
Alternate group                          : 1
Encoded date                             : UTC 2016-08-08 20:11:42
Tagged date                              : UTC 2016-08-08 20:11:46

Скриншоты:


Пришельцы 2: Коридоры времени / Les couloirs du temps: Les visiteurs II (1998) HDRip

«Ils reviennent!»
#77Производство: Франция, Gaumont, CineComic, France 3 Cinéma
Жанр: Фантастика, Фэнтези, Комедия

Режиccер: Жан-Мари Пуаре
Aктеры: Кристиан Клавье, Жан Рено, Мюриэль Робен, Мари-Анн Шазель, Жан-Люк Карон, Патрик Бюржель, Эрик Аверлан, Армель, Пьер Виаль, Франк-Оливье Бонне

Опиcание:
Если Вы выпили волшебного снадобья и попали в средневековье не надейтесь на свои сотовый телефон и службу спасения: еще никому не удавалось вырваться из лап святой инквизиции. И вы не сможете вернуться обратно, ведь в вашем времени действует ваш двойник-наивный средневековый пройдоха Жакуй.
Ваша единственная надежда-доблестный граф Де Монмирай, который не может жениться, так как Жакуй похитил у его будущего шурина святые реликвии и спрятал их в нашем времени.
Теперь граф с помощью чар великого волшебника Эусебиуса должен восстановить ход времени, отправить предков в прошлое, а потомков в будущее, иначе коридоры времени не закроются, и произойдет вселенская катастрофа.


Возраст: 6+ (зрителям, достигшим 6 лет)

Продoлжительность: 01:57:25
Качество видео: HDRip
Перевод: Многоголосый закадровый - Амальгама, НТВ, ТНТ
Вид субтитров: Отсутствуют

Видео: AVC/H.264 (Main@L3.1), 1024x436@720x436 (2.35:1), 1700 Кбит/сек
Аудио #1: AAC, 2 канала, 128 Кбит/сек - русский (многоголосый закадровый - Амальгама)
Аудио #2: AAC, 2 канала, 128 Кбит/сек - русский (многоголосый закадровый - НТВ)
Аудио #3: AAC, 2 канала, 128 Кбит/сек - русский (многоголосый закадровый - ТНТ)
Код:
Код: Выделить всё
General
Complete name                            : C:\CREATE\264mod1\out\Les Visiteurs La Trilogie (1993-2016).576p.NNMclub\Les.Visiteurs-II_Les.couloirs.du.temps.1998.576p.HDRip.AAC.x264.NNMclub.mp4
Format                                   : MPEG-4
Format profile                           : Base Media
Codec ID                                 : isom (isom/avc1)
File size                                : 1.72 GiB
Duration                                 : 1h 57mn
Overall bit rate mode                    : Variable
Overall bit rate                         : 2 099 Kbps
Movie name                               : Пришельцы 2: Коридоры времени
Performer                                : Jean-Marie Poiré
Director                                 : Jean-Marie Poiré
Actor                                    : Christian Clavier (Jacquouille la Fripouille / Jacques-Henri Jacquard / Prosper le Purineur / Jacouillet) / Jean Reno (Comte Godefroy de Montmirail / dit Godefroy le Hardi) / Marie-Anne Chazel (Ginette) / Christian Bujeau (Jean-Pierre Goulard) / Muriel Robin (Frénégonde / Béatrice) / Claire Nadeau (Cora de Montmirail) / Jean-Luc Caron (Ganelon) / Patrick Burgel (Duc Fulbert) / Eric Averlant (Brother Raoul) / Armelle Leroy-Rolland (Pétronille) / Pierre Vial (Eusaebe / Monsieur Ferdinand) / Franck-Olivier Bonnet (Boniface) / Philippe Morier-Genoud (Frère Ponce) / Philippe Nahon (Le gérant du supermarché) / Christian Bujeau (Jean-Pierre) / Olivier Claverie (Le médecin) / Olga Sékulic (Hilda) / Jean-Paul Muel (Maréchal des Logis Gibon) / Christian Pereira (Capitaine Batardet) / Jacques François (Le mari de Gisèle) / Sylvie Joly (Gisèle) / Michèle Garcia (Madame Frangin) / Mireille Franchino (Mariette) / Didier Bénureau (L'interne Beauvin) / Georges Téran (Le chef des pompiers) / Rodolphe Sand (Pompier René) / Philippe Beglia (Duc de Luigny) / Marie Guillard (Philippine de Montmirail) / Laurent Gendron (Le pompiste) / Arielle Sémenoff (Jacqueline) / Frédéric Baptiste (Freddy) / Louba Guertchikoff (La maman d'Odette) / Laurence Badie (Odette) / David Gabison (Le maître d'hôtel) / Théophile Sowié (Le postier) / Josette Ménard (La maman de Dany)
Screenplay by                            : Jean-Marie Poiré / Christian Clavier
Producer                                 : Alain Terzian
Genre                                    : Foreign
ContentType                              : Short Film
Description                              : Если Вы выпили волшебного снадобья и попали в средневековье не надейтесь на свои сотовый телефон и службу спасения: еще никому не удавалось вырваться из лап святой инквизиции. И вы не сможете вернуться обратно, ведь в вашем времени действует ваш двой
Recorded date                            : UTC 1998-02-11 08:00:00
Encoded date                             : UTC 2016-08-08 20:13:00
Tagged date                              : UTC 2016-08-08 20:33:28
Cover                                    : Yes
Rating                                   : None
Title/Sort                               : The Visitors 2 (Les couloirs du temps - Les visiteurs II)
LongDescription                          : Godefroy de Montmirail is about to marry Frénégonde de Pouille when the Duke, her father, interrupts the wedding preparation. Someone has "stoleneth" the sacred relic of Sainte Rolande which assures the fecundity of the de Pouille women. It is now the property of Bernie 'the scallop" and Ginette, in the present. Calamity! The corridors of time are not shut and it can only spell the worst possible disasters. And to top it all off, Bernardin, the descendant of Bernie, came back with Godefroy and is stranded in the Middle Ages. Godefroy decides to return to the present for a harrowing second voyage in The Corridors of Time, the sequel to The Visitors.
ContentRating                            : mpaa|NR|000|

Video
ID                                       : 1
Format                                   : AVC
Format/Info                              : Advanced Video Codec
Format profile                           : Main@L3
Format settings, CABAC                   : No
Format settings, ReFrames                : 4 frames
Codec ID                                 : avc1
Codec ID/Info                            : Advanced Video Coding
Duration                                 : 1h 57mn
Bit rate                                 : 1 700 Kbps
Maximum bit rate                         : 7 997 Kbps
Width                                    : 720 pixels
Height                                   : 436 pixels
Display aspect ratio                     : 2.35:1
Frame rate mode                          : Constant
Frame rate                               : 24.000 fps
Color space                              : YUV
Chroma subsampling                       : 4:2:0
Bit depth                                : 8 bits
Scan type                                : Progressive
Bits/(Pixel*Frame)                       : 0.226
Stream size                              : 1.39 GiB (81%)
Writing library                          : x264 core 148 r2705+54 9f484c1 t_mod_Custom [8-bit@all X86_64]
Encoding settings                        : cabac=0 / ref=3 / deblock=1:-1:-1 / analyse=0x1:0x131 / me=umh / subme=7 / psy=1 / fade_compensate=0.00 / psy_rd=1.00:0.10 / mixed_ref=1 / me_range=32 / chroma_me=1 / trellis=2 / 8x8dct=0 / cqm=0 / deadzone=21,11 / fast_pskip=0 / chroma_qp_offset=-3 / threads=12 / lookahead_threads=2 / sliced_threads=0 / nr=0 / decimate=0 / interlaced=0 / bluray_compat=0 / constrained_intra=0 / fgo=0 / bframes=3 / b_pyramid=2 / b_adapt=2 / b_bias=0 / direct=3 / weightb=1 / open_gop=0 / weightp=2 / keyint=240 / keyint_min=24 / scenecut=40 / intra_refresh=0 / rc_lookahead=40 / rc=2pass / mbtree=1 / bitrate=1700 / ratetol=1.0 / qcomp=0.60 / qpmin=0:0:0 / qpmax=69:69:69 / qpstep=4 / cplxblur=20.0 / qblur=0.5 / vbv_maxrate=10000 / vbv_bufsize=10000 / nal_hrd=none / filler=0 / ip_ratio=1.40 / aq=3:0.80 / aq-sensitivity=10.00 / aq-factor=1.00:1.00:1.00 / aq2=0 / aq3=3:[0.50:0.50]:[0.50:0.50]:[0.50:0.50]:[0.50:0.50] / aq3-sensitivity=10.00 / aq3-factor=[1.00:1.00]:[1.00:1.00]:[1.00:1.00] / aq3-boundary=192:64:24
Language                                 : English
Encoded date                             : UTC 2016-08-08 20:13:00
Tagged date                              : UTC 2016-08-08 20:13:23
Color range                              : Limited
Color primaries                          : BT.709
Matrix coefficients                      : BT.709
Menus                                    : 7

Audio #1
ID                                       : 2
Format                                   : AAC
Format/Info                              : Advanced Audio Codec
Format profile                           : LC
Codec ID                                 : 40
Duration                                 : 1h 57mn
Bit rate mode                            : Variable
Bit rate                                 : 128 Kbps
Maximum bit rate                         : 132 Kbps
Channel(s)                               : 2 channels
Channel positions                        : Front: L R
Sampling rate                            : 48.0 KHz
Frame rate                               : 46.875 fps (1024 spf)
Compression mode                         : Lossy
Stream size                              : 108 MiB (6%)
Language                                 : Russian
Default                                  : Yes
Alternate group                          : 1
Encoded date                             : UTC 2016-08-08 20:13:12
Tagged date                              : UTC 2016-08-08 20:13:23

Audio #2
ID                                       : 3
Format                                   : AAC
Format/Info                              : Advanced Audio Codec
Format profile                           : LC
Codec ID                                 : 40
Duration                                 : 1h 57mn
Bit rate mode                            : Variable
Bit rate                                 : 128 Kbps
Maximum bit rate                         : 131 Kbps
Channel(s)                               : 2 channels
Channel positions                        : Front: L R
Sampling rate                            : 48.0 KHz
Frame rate                               : 46.875 fps (1024 spf)
Compression mode                         : Lossy
Stream size                              : 108 MiB (6%)
Language                                 : Russian
Default                                  : No
Alternate group                          : 1
Encoded date                             : UTC 2016-08-08 20:13:16
Tagged date                              : UTC 2016-08-08 20:13:23

Audio #3
ID                                       : 4
Format                                   : AAC
Format/Info                              : Advanced Audio Codec
Format profile                           : LC
Codec ID                                 : 40
Duration                                 : 1h 57mn
Bit rate mode                            : Variable
Bit rate                                 : 128 Kbps
Maximum bit rate                         : 131 Kbps
Channel(s)                               : 2 channels
Channel positions                        : Front: L R
Sampling rate                            : 48.0 KHz
Frame rate                               : 46.875 fps (1024 spf)
Compression mode                         : Lossy
Stream size                              : 108 MiB (6%)
Language                                 : Russian
Default                                  : No
Alternate group                          : 1
Encoded date                             : UTC 2016-08-08 20:13:19
Tagged date                              : UTC 2016-08-08 20:13:23

Text #1
ID                                       : 5
Format                                   : Timed Text
Muxing mode                              : sbtl
Codec ID                                 : tx3g
Duration                                 : 1h 53mn
Bit rate mode                            : Variable
Bit rate                                 : 129 bps
Stream size                              : 107 KiB (0%)
Language                                 : Russian
Default                                  : Yes
Forced                                   : No
Alternate group                          : 2
Encoded date                             : UTC 2016-08-08 20:13:23
Tagged date                              : UTC 2016-08-08 20:13:23

Text #2
ID                                       : 6
Format                                   : Timed Text
Muxing mode                              : sbtl
Codec ID                                 : tx3g
Duration                                 : 1h 57mn
Bit rate mode                            : Variable
Bit rate                                 : 59 bps
Stream size                              : 51.0 KiB (0%)
Language                                 : English
Default                                  : No
Forced                                   : No
Alternate group                          : 2
Encoded date                             : UTC 2016-08-08 20:13:23
Tagged date                              : UTC 2016-08-08 20:13:23

Menu
ID                                       : 7
Codec ID                                 : text
Duration                                 : 1h 57mn
Encoded date                             : UTC 2016-08-08 20:13:58
Tagged date                              : UTC 2016-08-08 20:13:58
Bit rate mode                            : CBR
Menu For                                 : 1
00:00:00.000                             : 00:00:00.000
00:10:07.875                             : 00:10:07.875
00:20:41.042                             : 00:20:41.042
00:30:29.917                             : 00:30:29.917
00:41:55.375                             : 00:41:55.375
00:52:34.583                             : 00:52:34.583
01:01:45.625                             : 01:01:45.625
01:12:58.792                             : 01:12:58.792
01:20:03.000                             : 01:20:03.000
01:29:17.500                             : 01:29:17.500
01:38:33.083                             : 01:38:33.083
01:50:09.125                             : 01:50:09.125

Скриншоты:


Пришельцы 3: Взятие Бастилии / Les Visiteurs: La Révolution (2016)
HDRip

#77Производство: Франция, Gaumont, Ouille Productions, Nexus Factory
Жанр: Фантастика, Фэнтези, Комедия

Режиccер: Жан-Мари Пуаре
Aктеры: Кристиан Клавье, Жан Рено, Франк Дюбоск, Карин Вьяр, Сильви Тестю, Мари-Анн Шазель, Эри Абиттан, Алекс Лутс, Стефани де Крэенкур, Вероника Буланжер

Опиcание:
В третьей части граф с оруженосцем отправляются в самое сложное для Франции время — период Французской революции.


Возраст: 12+ (зрителям, достигшим 12 лет)

Продoлжительность: 01:45:21
Качество видео: HDRip
Перевод: Дублированный (Чистый звук)
Вид субтитров: Отсутствуют

Видео: AVC/H.264 (Main@L3.1), 1024x428@720x428 (2.39:1), 1800 Кбит/сек
Аудио #1: AAC, 2 канала, 128 Кбит/сек - русский (дублированный)
Аудио #2: AAC, 2 канала, 128 Кбит/сек - французский (оригинальный)
Код:
Код: Выделить всё
General
Complete name                            : C:\CREATE\264mod1\out\Les Visiteurs La Trilogie (1993-2016).576p.NNMclub\Les.Visiteurs-III_La.revolution.2016.576p.HDRip.AAC.x264.NNMclub.mp4
Format                                   : MPEG-4
Format profile                           : Base Media / Version 2
Codec ID                                 : mp42 (mp42/isom)
File size                                : 1.52 GiB
Duration                                 : 1h 45mn
Overall bit rate mode                    : Variable
Overall bit rate                         : 2 060 Kbps
Movie name                               : Les visiteurs 3 : La révolution
Performer                                : Jean-Marie Poiré
Director                                 : Jean-Marie Poiré
Actor                                    : Jean Reno / Franck Dubosc
Screenplay by                            : Jean-Marie Poiré / Christian Clavier
Genre                                    : Comedy
ContentType                              : Short Film
Description                              : Bloqués dans les couloirs du temps, Godefroy et son fidèle serviteur Jacquouille sont projetés dans une époque de profonds bouleversements politiques et sociaux : la Révolution Française... Plus précisément, la Terreur, période de grands dangers pendant laquelle les descendants de Jacquouille, révolutionnaires convaincus, confisquent le château et tous les biens des descendants de Godefroy, aristocrates arrogants en fuite dont la vie ne tient qu'à un fil.
Recorded date                            : 2016-08-04
Encoded date                             : UTC 2016-09-12 16:38:00
Tagged date                              : UTC 2016-09-12 16:44:10
Copyright                                : © 2016 Gaumont - Ouille Productions - TF1 Films Productions - Nexus Factory - Okko Production
Cover                                    : Yes
Rating                                   : None
LongDescription                          : Bloqués dans les couloirs du temps, Godefroy et son fidèle serviteur Jacquouille sont projetés dans une époque de profonds bouleversements politiques et sociaux : la Révolution Française... Plus précisément, la Terreur, période de grands dangers pendant laquelle les descendants de Jacquouille, révolutionnaires convaincus, confisquent le château et tous les biens des descendants de Godefroy, aristocrates arrogants en fuite dont la vie ne tient qu'à un fil.
AppleStoreCountry                        : Canada
AppleStoreCatalogID                      : 1125519327
ContentRating                            : ca-movie|G|100|

Video
ID                                       : 1
Format                                   : AVC
Format/Info                              : Advanced Video Codec
Format profile                           :
Format settings, CABAC                   : No
Format settings, ReFrames                : 3 frames
Codec ID                                 : avc1
Codec ID/Info                            : Advanced Video Coding
Duration                                 : 1h 45mn
Bit rate                                 : 1 800 Kbps
Width                                    : 720 pixels
Height                                   : 428 pixels
Display aspect ratio                     : 2.40:1
Original display aspect ratio            : 2.40:1
Frame rate mode                          : Constant
Frame rate                               : 25.000 fps
Color space                              : YUV
Chroma subsampling                       : 4:2:0
Bit depth                                : 8 bits
Scan type                                : Progressive
Bits/(Pixel*Frame)                       : 0.234
Stream size                              : 1.32 GiB (87%)
Writing library                          : x264 core 148 r2705+54 9f484c1 t_mod_Custom [8-bit@all X86]
Encoding settings                        : cabac=0 / ref=3 / deblock=1:-1:-1 / analyse=0x1:0x111 / me=umh / subme=7 / psy=1 / fade_compensate=0.00 / psy_rd=1.00:0.05 / mixed_ref=1 / me_range=32 / chroma_me=1 / trellis=2 / 8x8dct=0 / cqm=0 / deadzone=21,11 / fast_pskip=0 / chroma_qp_offset=-3 / threads=13 / lookahead_threads=2 / sliced_threads=0 / nr=0 / decimate=0 / interlaced=0 / bluray_compat=0 / constrained_intra=0 / fgo=0 / bframes=3 / b_pyramid=1 / b_adapt=2 / b_bias=0 / direct=3 / weightb=1 / open_gop=0 / weightp=2 / keyint=250 / keyint_min=25 / scenecut=40 / intra_refresh=0 / rc_lookahead=50 / rc=2pass / mbtree=1 / bitrate=1800 / ratetol=1.0 / qcomp=0.60 / qpmin=0:0:0 / qpmax=69:69:69 / qpstep=4 / cplxblur=20.0 / qblur=0.5 / vbv_maxrate=14000 / vbv_bufsize=14000 / nal_hrd=none / filler=0 / ip_ratio=1.40 / aq=1:0.90 / aq-sensitivity=10.00 / aq-factor=1.00:1.00:1.00 / aq2=1:0.90 / aq2-sensitivity=15.00 / aq2-factor=1.00:1.00:1.00 / aq3=3:[0.50:0.50]:[0.50:0.50]:[0.50:0.50]:[0.50:0.50] / aq3-sensitivity=10.00 / aq3-factor=[1.00:1.00]:[1.00:1.00]:[1.00:1.00] / aq3-boundary=192:64:24
Encoded date                             : UTC 2016-09-12 16:38:00
Tagged date                              : UTC 2016-09-12 16:42:57
Color range                              : Limited
Matrix coefficients                      : BT.709
Menus                                    : 4

Audio #1
ID                                       : 2
Format                                   : AAC
Format/Info                              : Advanced Audio Codec
Format profile                           : LC
Codec ID                                 : 40
Duration                                 : 1h 45mn
Source duration                          : 1h 45mn
Bit rate mode                            : Variable
Bit rate                                 : 128 Kbps
Maximum bit rate                         : 132 Kbps
Channel(s)                               : 2 channels
Channel positions                        : Front: L R
Sampling rate                            : 48.0 KHz
Frame rate                               : 46.875 fps (1024 spf)
Compression mode                         : Lossy
Stream size                              : 96.4 MiB (6%)
Source stream size                       : 96.4 MiB (6%)
Language                                 : Russian
Default                                  : Yes
Alternate group                          : 1
Encoded date                             : UTC 2016-09-12 16:38:00
Tagged date                              : UTC 2016-09-12 16:42:57

Audio #2
ID                                       : 3
Format                                   : AAC
Format/Info                              : Advanced Audio Codec
Format profile                           : LC
Codec ID                                 : 40
Duration                                 : 1h 45mn
Source duration                          : 1h 45mn
Bit rate mode                            : Variable
Bit rate                                 : 128 Kbps
Maximum bit rate                         : 131 Kbps
Channel(s)                               : 2 channels
Channel positions                        : Front: L R
Sampling rate                            : 48.0 KHz
Frame rate                               : 46.875 fps (1024 spf)
Compression mode                         : Lossy
Stream size                              : 96.4 MiB (6%)
Source stream size                       : 96.4 MiB (6%)
Language                                 : French
Default                                  : No
Alternate group                          : 1
Encoded date                             : UTC 2016-09-12 16:38:00
Tagged date                              : UTC 2016-09-12 16:42:57

Menu
ID                                       : 4
Codec ID                                 : text
Duration                                 : 1h 45mn
Language                                 : English
Encoded date                             : UTC 2016-09-12 16:42:57
Tagged date                              : UTC 2016-09-12 16:42:57
Bit rate mode                            : CBR
Menu For                                 : 1
Duration_LastFrame                       : -879840
00:00:00.000                             : Chapter 1
00:15:00.000                             : Chapter 2
00:30:00.000                             : Chapter 3
00:45:00.000                             : Chapter 4
01:00:00.000                             : Chapter 5
01:15:00.000                             : Chapter 6
01:30:00.000                             : Chapter 7
01:45:00.000                             : Chapter 8

Скриншоты:


Скриншоты



Время раздачи: 24/7 (круглосуточно) (до появления первых 3-5 скачавших)
 
Не забывайте говорить Спасибо. Не уходите с раздачи!   
Торрент: Зарегистрирован [12 сен 2016, 22:42] Для скачивания .torrent
необходима регистрация
Или скачать с помощью
MediaGet
Статус:
Проверен
 
.torrent скачан: 1 раз
Хэш: 53c34eda1a465d7e14ec68a04187b1f9abf7c01f
Размер: 4.8 ГБ (5 156 423 523 байт)
Стать Автором раздачи
 
 
Раздал: 100 ГБ
Скачал: 0 байт
Ратио: Seed.
Сообщения: 94065
Зарегистрирован: 09 апр 2015, 22:31


  • Похожие торренты
    Ответы
    Просмотры
    Последнее сообщение

Вернуться в Видео для мобильных устройств

Ресурс не предоставляет электронные версии произведений, а занимается лишь коллекционированием и каталогизацией ссылок, присылаемых и публикуемых на форуме нашими читателями. Если вы являетесь правообладателем какого-либо представленного материала и не желаете чтобы ссылка на него находилась в нашем каталоге, свяжитесь с нами и мы незамедлительно удалим её. Файлы для обмена на трекере предоставлены пользователями сайта, и администрация не несёт ответственности за их содержание. Просьба не заливать файлы, защищенные авторскими правами, а также файлы нелегального содержания!
cron