Кто есть кто / Flic ou voyou / Cop or Hood (1979) BDRip [H.264] Мосфильм, НТВ [MP4|956x576]

 
 Статистика раздачи 
Размер: 1.87 ГБ   |  Зарегистрирован: 11 сен 2016, 02:27   |   .torrent скачан: 0 раз
Сидеров: 1  [ 0 байт/сек ]     Личеров: 0  [ 0 байт/сек ]  
  

Кто есть кто / Flic ou voyou / Cop or Hood (1979) BDRip [H.264] Мосфильм, НТВ [MP4|956x576]

Сообщение explosiveone » 11 сен 2016, 02:27

Кто есть кто / Flic ou voyou / Cop or Hood (1979) BDRip Мосфильм, НТВ


Производство: Франция, Cerito Films, Gaumont International
Жанр: Боевик, Триллер, Драма, Комедия, Криминал

Режиссер: Жорж Лотнер
Актеры: Жан-Поль Бельмондо, Жорж Жере, Жан-Франсуа Бальме, Клод Броссе, Жюли Жезекель, Мишель Бон, Тони Кендалл, Катрин Лашанс, Джульетт Миллз, Венантино Венантини

Описание:
После того как в Ницце при загадочных обстоятельствах был убит полицейский комиссар, туда приезжает из Парижа инспектор, из отдела по надзору за полицией, чтобы вскрыть коррупцию, царящую среди полиции города. Но методы его работы заставляют недоумевать, кого он больше напоминает, непринужденный и обольстительный, ловко действующий кулаками, но не чуждый сердечным порывам.


Возраст: 16+ (зрителям, достигшим 16 лет)

Продолжительность: 01:47:05
Качество видео: BDRip
Перевод: Дублированный - Мосфильм, Многоголосый закадровый НТВ
Вид субтитров: Вшитые отключаемые
Язык субтитров: Русский, Английский

Видео: AVC/H.264 (Main@L3.1), 956x576 (5:3), 2100 Кбит/сек
Аудио #1: AAC, 2 канала, 128 Кбит/сек - русский (дублированный)
Аудио #2: AAC, 2 канала, 128 Кбит/сек - русский (многоголосый закадровый)
Аудио #3: AAC, 2 канала, 128 Кбит/сек - французский
Код:
Код: Выделить всё
General
Complete name                            : C:\DGI\Flic.ou.Voyou.1979.576p.BDRip.AAC.x264.NNMclub.mp4
Format                                   : MPEG-4
Format profile                           : Base Media / Version 2
Codec ID                                 : mp42 (mp42/isom)
File size                                : 1.87 GiB
Duration                                 : 1h 47mn
Overall bit rate mode                    : Variable
Overall bit rate                         : 2 494 Kbps
Movie name                               : Flic ou voyou
Performer                                : Georges Lautner
Director                                 : Georges Lautner
Genre                                    : Action et aventure
ContentType                              : Short Film
Description                              : Le commissaire Borowitz est envoyé à Nice pour s'infiltrer dans le milieu de la pègre locale et
Recorded date                            : 1979-03-28
Encoded date                             : UTC 2016-09-10 20:50:45
Tagged date                              : UTC 2016-09-10 21:03:20
Copyright                                : © 1978 STUDIOCANAL / GAUMONT
Cover                                    : Yes
Rating                                   : None
LongDescription                          : Le commissaire Borowitz est envoyé à Nice pour s'infiltrer dans le milieu de la pègre locale et anéantir deux bandes rivales en les montant l'une contre l'autre. Il aura fort à faire, surtout qu'il doit endiguer les élans amoureux d'Edmonde, une romancière, et surveiller sa turbulente petite fille Charlotte.
AppleStoreCountry                        : France
AppleStoreCatalogID                      : 616585936
ContentRating                            : fr-movie|Tout public|000|

Video
ID                                       : 1
Format                                   : AVC
Format/Info                              : Advanced Video Codec
Format profile                           :
Format settings, CABAC                   : No
Format settings, ReFrames                : 3 frames
Codec ID                                 : avc1
Codec ID/Info                            : Advanced Video Coding
Duration                                 : 1h 47mn
Bit rate                                 : 2 100 Kbps
Width                                    : 956 pixels
Height                                   : 576 pixels
Display aspect ratio                     : 5:3
Frame rate mode                          : Variable
Frame rate                               : 23.976 (24000/1001) fps
Minimum frame rate                       : 23.810 fps
Maximum frame rate                       : 24.390 fps
Color space                              : YUV
Chroma subsampling                       : 4:2:0
Bit depth                                : 8 bits
Scan type                                : Progressive
Bits/(Pixel*Frame)                       : 0.159
Stream size                              : 1.57 GiB (84%)
Writing library                          : x264 core 148 r2705+54 9f484c1 t_mod_Custom [8-bit@all X86]
Encoding settings                        : cabac=0 / ref=3 / deblock=1:-2:-2 / analyse=0x1:0x111 / me=umh / subme=7 / psy=1 / fade_compensate=0.00 / psy_rd=1.00:0.05 / mixed_ref=1 / me_range=32 / chroma_me=1 / trellis=2 / 8x8dct=0 / cqm=0 / deadzone=21,11 / fast_pskip=0 / chroma_qp_offset=-3 / threads=18 / lookahead_threads=3 / sliced_threads=0 / nr=0 / decimate=0 / interlaced=0 / bluray_compat=0 / constrained_intra=0 / fgo=0 / bframes=3 / b_pyramid=1 / b_adapt=2 / b_bias=0 / direct=3 / weightb=1 / open_gop=0 / weightp=2 / keyint=240 / keyint_min=23 / scenecut=40 / intra_refresh=0 / rc_lookahead=50 / rc=2pass / mbtree=1 / bitrate=2100 / ratetol=1.0 / qcomp=0.60 / qpmin=0:0:0 / qpmax=69:69:69 / qpstep=4 / cplxblur=20.0 / qblur=0.5 / vbv_maxrate=14000 / vbv_bufsize=14000 / nal_hrd=none / filler=0 / ip_ratio=1.40 / aq=1:0.80 / aq-sensitivity=10.00 / aq-factor=1.00:1.00:1.00 / aq2=1:0.70 / aq2-sensitivity=10.00 / aq2-factor=1.00:1.00:1.00 / aq3=4:[0.50:0.50]:[0.50:0.50]:[0.60:0.60]:[0.50:0.50] / aq3-sensitivity=10.00 / aq3-factor=[1.00:1.00]:[1.00:1.00]:[1.00:1.00] / aq3-boundary=192:64:24
Encoded date                             : UTC 2016-09-10 20:50:45
Tagged date                              : UTC 2016-09-10 20:56:39
Color range                              : Limited
Matrix coefficients                      : BT.709
Menus                                    : 7

Audio #1
ID                                       : 2
Format                                   : AAC
Format/Info                              : Advanced Audio Codec
Format profile                           : LC
Codec ID                                 : 40
Duration                                 : 1h 47mn
Source duration                          : 1h 47mn
Bit rate mode                            : Variable
Bit rate                                 : 128 Kbps
Maximum bit rate                         : 133 Kbps
Channel(s)                               : 2 channels
Channel positions                        : Front: L R
Sampling rate                            : 48.0 KHz
Frame rate                               : 46.875 fps (1024 spf)
Compression mode                         : Lossy
Stream size                              : 98.0 MiB (5%)
Source stream size                       : 98.0 MiB (5%)
Language                                 : Russian
Default                                  : Yes
Alternate group                          : 1
Encoded date                             : UTC 2016-09-10 20:50:45
Tagged date                              : UTC 2016-09-10 20:56:39

Audio #2
ID                                       : 3
Format                                   : AAC
Format/Info                              : Advanced Audio Codec
Format profile                           : LC
Codec ID                                 : 40
Duration                                 : 1h 47mn
Source duration                          : 1h 47mn
Bit rate mode                            : Variable
Bit rate                                 : 128 Kbps
Maximum bit rate                         : 131 Kbps
Channel(s)                               : 2 channels
Channel positions                        : Front: L R
Sampling rate                            : 48.0 KHz
Frame rate                               : 46.875 fps (1024 spf)
Compression mode                         : Lossy
Stream size                              : 98.0 MiB (5%)
Source stream size                       : 98.0 MiB (5%)
Language                                 : Russian
Default                                  : No
Alternate group                          : 1
Encoded date                             : UTC 2016-09-10 20:50:45
Tagged date                              : UTC 2016-09-10 20:56:39

Audio #3
ID                                       : 4
Format                                   : AAC
Format/Info                              : Advanced Audio Codec
Format profile                           : LC
Codec ID                                 : 40
Duration                                 : 1h 47mn
Source duration                          : 1h 47mn
Bit rate mode                            : Variable
Bit rate                                 : 128 Kbps
Maximum bit rate                         : 130 Kbps
Channel(s)                               : 2 channels
Channel positions                        : Front: L R
Sampling rate                            : 48.0 KHz
Frame rate                               : 46.875 fps (1024 spf)
Compression mode                         : Lossy
Stream size                              : 98.0 MiB (5%)
Source stream size                       : 98.0 MiB (5%)
Language                                 : French
Default                                  : No
Alternate group                          : 1
Encoded date                             : UTC 2016-09-10 20:50:45
Tagged date                              : UTC 2016-09-10 20:56:39

Text #1
ID                                       : 5
Format                                   : Timed Text
Muxing mode                              : sbtl
Codec ID                                 : tx3g
Duration                                 : 1h 45mn
Bit rate mode                            : Variable
Bit rate                                 : 100 bps
Stream size                              : 77.4 KiB (0%)
Language                                 : Russian
Default                                  : Yes
Forced                                   : No
Alternate group                          : 2
Encoded date                             : UTC 2016-09-10 20:50:45
Tagged date                              : UTC 2016-09-10 20:56:39

Text #2
ID                                       : 6
Format                                   : Timed Text
Muxing mode                              : sbtl
Codec ID                                 : tx3g
Duration                                 : 1h 45mn
Bit rate mode                            : Variable
Bit rate                                 : 50 bps
Stream size                              : 38.3 KiB (0%)
Language                                 : English
Default                                  : No
Forced                                   : No
Alternate group                          : 2
Encoded date                             : UTC 2016-09-10 20:50:45
Tagged date                              : UTC 2016-09-10 20:56:39

Menu
ID                                       : 7
Codec ID                                 : text
Duration                                 : 1h 47mn
Language                                 : English
Encoded date                             : UTC 2016-09-10 20:56:39
Tagged date                              : UTC 2016-09-10 20:56:39
Bit rate mode                            : CBR
Menu For                                 : 1
00:00:00.000                             : 00:00:00.000
00:04:20.927                             : 00:04:20.927
00:16:47.965                             : 00:16:47.965
00:22:11.747                             : 00:22:11.747
00:32:36.454                             : 00:32:36.454
00:44:11.482                             : 00:44:11.482
00:51:07.731                             : 00:51:07.731
01:01:13.086                             : 01:01:13.086
01:11:17.482                             : 01:11:17.482
01:20:08.554                             : 01:20:08.554
01:29:52.095                             : 01:29:52.095
01:37:46.778                             : 01:37:46.778

Скриншоты:


Время раздачи: 24/7 (круглосуточно) (до появления первых 3-5 скачавших)
 
Не забывайте говорить Спасибо. Не уходите с раздачи!   
Торрент: Зарегистрирован [11 сен 2016, 02:27] Для скачивания .torrent
необходима регистрация
Или скачать с помощью
MediaGet
Статус:
Проверен
 
.torrent скачан: 0 раз
Хэш: 8927874d31ec490a9377dffd186bc4ce3073ea3e
Размер: 1.87 ГБ (2 003 293 991 байт)
Стать Автором раздачи
 
 
Раздал: 100 ГБ
Скачал: 0 байт
Ратио: Seed.
Сообщения: 94020
Зарегистрирован: 09 апр 2015, 22:31


  • Похожие торренты
    Ответы
    Просмотры
    Последнее сообщение

Вернуться в Видео для мобильных устройств

Ресурс не предоставляет электронные версии произведений, а занимается лишь коллекционированием и каталогизацией ссылок, присылаемых и публикуемых на форуме нашими читателями. Если вы являетесь правообладателем какого-либо представленного материала и не желаете чтобы ссылка на него находилась в нашем каталоге, свяжитесь с нами и мы незамедлительно удалим её. Файлы для обмена на трекере предоставлены пользователями сайта, и администрация не несёт ответственности за их содержание. Просьба не заливать файлы, защищенные авторскими правами, а также файлы нелегального содержания!
cron