Великие изобретатели (1-10 серии) (Светлана Серова / Svetlana Serova) [2015, Документальный, биография, постановочный, HDTV 1080i] ОБНОВЛЯЕМАЯ

 
 Статистика раздачи 
Размер: 15.11 ГБ   |  Зарегистрирован: 10 сен 2016, 10:18   |   .torrent скачан: 2 раз
Сидеров: 12  [ 0 байт/сек ]     Личеров: 3  [ 0 байт/сек ]  
  

Великие изобретатели (1-10 серии) (Светлана Серова / Svetlana Serova) [2015, Документальный, биография, постановочный, HDTV 1080i] ОБНОВЛЯЕМАЯ

Сообщение aLaVodka » 10 сен 2016, 10:18

Великие изобретатели

Год выпуска: 2015
Страна: Россия
Студия: ООО "ГринГа" (по заказу ЗАО "Первый ТВЧ")
Жанр: Документальный, биография, постановочный
Продолжительность: 8 x ~ 00:26:00
Перевод: Не требуется
Режиссер: Светлана Серова / Svetlana Serova
В ролях: Владимир Лесников, Евгений Коротков, Глеб Елин, Андрей Широкий, Дмитрий Коновалов, Сергей Шаповалов, Никита Кухтин, Евгений Гончаров

Описание: Цикл программ, рассказывающий о великих российских изобретателях, идеи которых стали переломной точкой на линии цивилизации. Авторы проекта постарались раскрыть личность каждого героя, найти в их жизни ключевое событие, следствием которого стало то или иное изобретение.

Сэмпл: https://www.sendspace.com/file/vgvaxv

Тип релиза: HDTV 1080i
Контейнер: TS

Видео: MPEG-4 AVC, 5206-8136 Кбит/с, 1920x1080, 16:9, 25.00 фпс
Аудио: Русский AC3, 6 ch, 448 Кбит/с, 48.0 KHz
Аудио 2: Русский MP2, 2 ch, 192 Кбит/с, 48.0 KHz
Код: Выделить всё
General
ID                          : 1 (0x1)
Complete name               : D:\Торренты\Фильмы\Документальные\Великие изобретатели\05. Русский свет Яблочкова.ts
Format                      : MPEG-TS
File size                   : 1.66 GiB
Duration                    : 25mn 59s
Overall bit rate mode       : Variable
Overall bit rate            : 9 133 Kbps

Video
ID                          : 3751 (0xEA7)
Menu ID                     : 37005 (0x908D)
Format                      : AVC
Format/Info                 : Advanced Video Codec
Format profile              : Main@L4
Format settings, CABAC      : Yes
Format settings, ReFrames   : 4 frames
Codec ID                    : 27
Duration                    : 25mn 59s
Bit rate                    : 8 035 Kbps
Width                       : 1 920 pixels
Height                      : 1 080 pixels
Display aspect ratio        : 16:9
Frame rate                  : 25.000 fps
Color space                 : YUV
Chroma subsampling          : 4:2:0
Bit depth                   : 8 bits
Scan type                   : Interlaced
Scan type, store method     : Separated fields
Scan order                  : Top Field First
Bits/(Pixel*Frame)          : 0.155
Stream size                 : 1.46 GiB (88%)
Color range                 : Limited
Color primaries             : BT.709
Transfer characteristics    : BT.709
Matrix coefficients         : BT.709

Audio #1
ID                          : 3752 (0xEA8)
Menu ID                     : 37005 (0x908D)
Format                      : AC-3
Format/Info                 : Audio Coding 3
Mode extension              : CM (complete main)
Format settings, Endianness : Big
Codec ID                    : 6
Duration                    : 25mn 59s
Bit rate mode               : Constant
Bit rate                    : 448 Kbps
Channel(s)                  : 6 channels
Channel positions           : Front: L C R, Side: L R, LFE
Sampling rate               : 48.0 KHz
Frame rate                  : 31.250 fps (1536 spf)
Compression mode            : Lossy
Stream size                 : 83.3 MiB (5%)
Language                    : Russian

Audio #2
ID                          : 3753 (0xEA9)
Menu ID                     : 37005 (0x908D)
Format                      : MPEG Audio
Format version              : Version 1
Format profile              : Layer 2
Codec ID                    : 3
Duration                    : 25mn 59s
Bit rate mode               : Constant
Bit rate                    : 192 Kbps
Channel(s)                  : 2 channels
Sampling rate               : 48.0 KHz
Compression mode            : Lossy
Stream size                 : 35.7 MiB (2%)
Language                    : Russian

General
ID                          : 1 (0x1)
Complete name               : G:\Торренты\Великие изобретатели\01. Космос Сергея Королева.ts
Format                      : MPEG-TS
File size                   : 1.68 GiB
Duration                    : 25mn 59s
Overall bit rate mode       : Variable
Overall bit rate            : 9 239 Kbps

Video
ID                          : 3751 (0xEA7)
Menu ID                     : 37005 (0x908D)
Format                      : AVC
Format/Info                 : Advanced Video Codec
Format profile              : Main@L4
Format settings, CABAC      : Yes
Format settings, ReFrames   : 4 frames
Codec ID                    : 27
Duration                    : 25mn 59s
Bit rate                    : 8 136 Kbps
Width                       : 1 920 pixels
Height                      : 1 080 pixels
Display aspect ratio        : 16:9
Frame rate                  : 25.000 fps
Color space                 : YUV
Chroma subsampling          : 4:2:0
Bit depth                   : 8 bits
Scan type                   : Interlaced
Scan type, store method     : Separated fields
Scan order                  : Top Field First
Bits/(Pixel*Frame)          : 0.157
Stream size                 : 1.48 GiB (88%)
Color range                 : Limited
Color primaries             : BT.709
Transfer characteristics    : BT.709
Matrix coefficients         : BT.709

Audio #1
ID                          : 3752 (0xEA8)
Menu ID                     : 37005 (0x908D)
Format                      : AC-3
Format/Info                 : Audio Coding 3
Mode extension              : CM (complete main)
Format settings, Endianness : Big
Codec ID                    : 6
Duration                    : 25mn 59s
Bit rate mode               : Constant
Bit rate                    : 448 Kbps
Channel(s)                  : 6 channels
Channel positions           : Front: L C R, Side: L R, LFE
Sampling rate               : 48.0 KHz
Frame rate                  : 31.250 fps (1536 spf)
Compression mode            : Lossy
Stream size                 : 83.3 MiB (5%)
Language                    : Russian

Audio #2
ID                          : 3753 (0xEA9)
Menu ID                     : 37005 (0x908D)
Format                      : MPEG Audio
Format version              : Version 1
Format profile              : Layer 2
Codec ID                    : 3
Duration                    : 25mn 59s
Bit rate mode               : Constant
Bit rate                    : 192 Kbps
Channel(s)                  : 2 channels
Sampling rate               : 48.0 KHz
Compression mode            : Lossy
Stream size                 : 35.7 MiB (2%)
Language                    : Russian

General
ID                          : 1 (0x1)
Complete name               : G:\Торренты\Великие изобретатели\02. 30 тысячь дней Ильюшина.ts
Format                      : MPEG-TS
File size                   : 1.12 GiB
Duration                    : 26mn 0s
Overall bit rate mode       : Variable
Overall bit rate            : 6 157 Kbps

Video
ID                          : 3751 (0xEA7)
Menu ID                     : 37005 (0x908D)
Format                      : AVC
Format/Info                 : Advanced Video Codec
Format profile              : Main@L4
Format settings, CABAC      : Yes
Format settings, ReFrames   : 3 frames
Codec ID                    : 27
Duration                    : 25mn 59s
Bit rate                    : 5 206 Kbps
Width                       : 1 920 pixels
Height                      : 1 080 pixels
Display aspect ratio        : 16:9
Frame rate                  : 25.000 fps
Standard                    : Component
Color space                 : YUV
Chroma subsampling          : 4:2:0
Bit depth                   : 8 bits
Scan type                   : Interlaced
Scan type, store method     : Separated fields
Scan order                  : Top Field First
Bits/(Pixel*Frame)          : 0.100
Stream size                 : 968 MiB (85%)
Color range                 : Limited
Color primaries             : BT.709
Transfer characteristics    : BT.709
Matrix coefficients         : BT.709

Audio #1
ID                          : 3752 (0xEA8)
Menu ID                     : 37005 (0x908D)
Format                      : AC-3
Format/Info                 : Audio Coding 3
Mode extension              : CM (complete main)
Format settings, Endianness : Big
Codec ID                    : 6
Duration                    : 25mn 59s
Bit rate mode               : Constant
Bit rate                    : 448 Kbps
Channel(s)                  : 6 channels
Channel positions           : Front: L C R, Side: L R, LFE
Sampling rate               : 48.0 KHz
Frame rate                  : 31.250 fps (1536 spf)
Compression mode            : Lossy
Stream size                 : 83.3 MiB (7%)
Language                    : Russian

Audio #2
ID                          : 3753 (0xEA9)
Menu ID                     : 37005 (0x908D)
Format                      : MPEG Audio
Format version              : Version 1
Format profile              : Layer 2
Codec ID                    : 3
Duration                    : 25mn 59s
Bit rate mode               : Constant
Bit rate                    : 192 Kbps
Channel(s)                  : 2 channels
Sampling rate               : 48.0 KHz
Compression mode            : Lossy
Stream size                 : 35.7 MiB (3%)
Language                    : Russian

General
ID                          : 1 (0x1)
Complete name               : G:\Торренты\Великие изобретатели\03. Мичурин_маэстро природы.ts
Format                      : MPEG-TS
File size                   : 1.28 GiB
Duration                    : 26mn 0s
Overall bit rate mode       : Variable
Overall bit rate            : 7 028 Kbps

Video
ID                          : 3751 (0xEA7)
Menu ID                     : 37005 (0x908D)
Format                      : AVC
Format/Info                 : Advanced Video Codec
Format profile              : Main@L4
Format settings, CABAC      : Yes
Format settings, ReFrames   : 3 frames
Codec ID                    : 27
Duration                    : 25mn 59s
Bit rate                    : 6 034 Kbps
Width                       : 1 920 pixels
Height                      : 1 080 pixels
Display aspect ratio        : 16:9
Frame rate                  : 25.000 fps
Standard                    : Component
Color space                 : YUV
Chroma subsampling          : 4:2:0
Bit depth                   : 8 bits
Scan type                   : Interlaced
Scan type, store method     : Separated fields
Scan order                  : Top Field First
Bits/(Pixel*Frame)          : 0.116
Stream size                 : 1.10 GiB (86%)
Color range                 : Limited
Color primaries             : BT.709
Transfer characteristics    : BT.709
Matrix coefficients         : BT.709

Audio #1
ID                          : 3752 (0xEA8)
Menu ID                     : 37005 (0x908D)
Format                      : AC-3
Format/Info                 : Audio Coding 3
Mode extension              : CM (complete main)
Format settings, Endianness : Big
Codec ID                    : 6
Duration                    : 25mn 59s
Bit rate mode               : Constant
Bit rate                    : 448 Kbps
Channel(s)                  : 6 channels
Channel positions           : Front: L C R, Side: L R, LFE
Sampling rate               : 48.0 KHz
Frame rate                  : 31.250 fps (1536 spf)
Compression mode            : Lossy
Delay relative to video     : -80ms
Stream size                 : 83.3 MiB (6%)
Language                    : Russian

Audio #2
ID                          : 3753 (0xEA9)
Menu ID                     : 37005 (0x908D)
Format                      : MPEG Audio
Format version              : Version 1
Format profile              : Layer 2
Codec ID                    : 3
Duration                    : 25mn 59s
Bit rate mode               : Constant
Bit rate                    : 192 Kbps
Channel(s)                  : 2 channels
Sampling rate               : 48.0 KHz
Compression mode            : Lossy
Delay relative to video     : -80ms
Stream size                 : 35.7 MiB (3%)
Language                    : Russian

General
ID                          : 1 (0x1)
Complete name               : G:\Торренты\Великие изобретатели\04. Т-34 Михаила Кошкина.ts
Format                      : MPEG-TS
File size                   : 1.23 GiB
Duration                    : 26mn 0s
Overall bit rate mode       : Variable
Overall bit rate            : 6 798 Kbps

Video
ID                          : 3751 (0xEA7)
Menu ID                     : 37005 (0x908D)
Format                      : AVC
Format/Info                 : Advanced Video Codec
Format profile              : Main@L4
Format settings, CABAC      : Yes
Format settings, ReFrames   : 3 frames
Codec ID                    : 27
Duration                    : 25mn 59s
Bit rate                    : 5 816 Kbps
Width                       : 1 920 pixels
Height                      : 1 080 pixels
Display aspect ratio        : 16:9
Frame rate                  : 25.000 fps
Standard                    : Component
Color space                 : YUV
Chroma subsampling          : 4:2:0
Bit depth                   : 8 bits
Scan type                   : Interlaced
Scan type, store method     : Separated fields
Scan order                  : Top Field First
Bits/(Pixel*Frame)          : 0.112
Stream size                 : 1.06 GiB (86%)
Color range                 : Limited
Color primaries             : BT.709
Transfer characteristics    : BT.709
Matrix coefficients         : BT.709

Audio #1
ID                          : 3752 (0xEA8)
Menu ID                     : 37005 (0x908D)
Format                      : AC-3
Format/Info                 : Audio Coding 3
Mode extension              : CM (complete main)
Format settings, Endianness : Big
Codec ID                    : 6
Duration                    : 25mn 59s
Bit rate mode               : Constant
Bit rate                    : 448 Kbps
Channel(s)                  : 6 channels
Channel positions           : Front: L C R, Side: L R, LFE
Sampling rate               : 48.0 KHz
Frame rate                  : 31.250 fps (1536 spf)
Compression mode            : Lossy
Delay relative to video     : -120ms
Stream size                 : 83.3 MiB (7%)
Language                    : Russian

Audio #2
ID                          : 3753 (0xEA9)
Menu ID                     : 37005 (0x908D)
Format                      : MPEG Audio
Format version              : Version 1
Format profile              : Layer 2
Codec ID                    : 3
Duration                    : 25mn 59s
Bit rate mode               : Constant
Bit rate                    : 192 Kbps
Channel(s)                  : 2 channels
Sampling rate               : 48.0 KHz
Compression mode            : Lossy
Delay relative to video     : -120ms
Stream size                 : 35.7 MiB (3%)
Language                    : Russian
Раздача ведётся путём добавления новых серий; при каждом добавлении создаётся новый торрент. Чтобы начать докачку новой серии, пользователям необходимо сделать следующее:

- Остановить скачивание.
- Удалить старый торрент у себя из клиента (старые серии удалять не надо).
- Скачать новый торрент и запустить его у себя в клиенте вместо старого, при этом указать клиенту путь в старую папку куда и должно происходить скачивание новых серий.
01. Космоос Сергея Королева
02. 30 тысяч дней Ильюшина
03. Мичурин - маэстро природы
04. Т-34 Михаила Кошкина
05. Русский свет Яблочкова
06. Можайский изобретатель самолета
07. Константа Циолковского
08. Главная роль Глеба Котельникова
09. Думающая машина Исаака Брука
10. Иконоскоп Зворыкина
 
Не забывайте говорить Спасибо. Не уходите с раздачи!   
Торрент: Зарегистрирован [10 сен 2016, 10:18] Для скачивания .torrent
необходима регистрация
Или скачать с помощью
MediaGet
Статус:
Проверен
 
.torrent скачан: 2 раз
Хэш: 3d3e1566fe5df733cd24cffb14722346063d8f37
Размер: 15.11 ГБ (16 225 539 844 байт)
Стать Автором раздачи
 
 
Раздал: 100 ГБ
Скачал: 0 байт
Ратио: Seed.
Сообщения: 187880
Зарегистрирован: 09 апр 2015, 20:00


  • Похожие торренты
    Ответы
    Просмотры
    Последнее сообщение

Вернуться в Биографии. Личности и кумиры (HD Video)

Ресурс не предоставляет электронные версии произведений, а занимается лишь коллекционированием и каталогизацией ссылок, присылаемых и публикуемых на форуме нашими читателями. Если вы являетесь правообладателем какого-либо представленного материала и не желаете чтобы ссылка на него находилась в нашем каталоге, свяжитесь с нами и мы незамедлительно удалим её. Файлы для обмена на трекере предоставлены пользователями сайта, и администрация не несёт ответственности за их содержание. Просьба не заливать файлы, защищенные авторскими правами, а также файлы нелегального содержания!
cron