Забытый бой у мыса Сарыч (2014) DVB

 
 Статистика раздачи 
Размер: 822.51 МБ   |  Зарегистрирован: 09 сен 2016, 16:12   |   .torrent скачан: 3 раз
Сидеров: 1  [ 0 байт/сек ]     Личеров: 0  [ 0 байт/сек ]  
  

Забытый бой у мыса Сарыч (2014) DVB

Сообщение explosiveone » 09 сен 2016, 16:12

Забытый бой у мыса Сарыч (2014) DVB

Телекомпания: Россия, Григ-Фильм
Жанр: Документальный

Участники: Режиссер: Г. Илугдин

Описание:
Фильм посвящен одной из славных страниц отечественной военной истории – подвигу русских моряков у берегов Крыма осенью 1914 года и победе у мыса Сарыч над превосходящими силами германского флота. Эта победа позволила Черноморскому флоту перехватить инициативу и надолго отбила охоту у немцев и их турецких союзников атаковать берега Крыма.

Продолжительность: 00:39:12
Качество видео: DVB

Видео: AVC/H.264, 720х576@1024x576, ~2591 kb/s
Аудио: MP2, 2 ch, 192 kb/s, CBR
Код:
Код: Выделить всё
Общее
Идентификатор                            : 16 (0x10)
Полное имя                               : Забытый бой у мыса Сарыч.ts
Формат                                   : MPEG-TS
Размер файла                             : 823 Мбайт
Продолжительность                        : 39 м.
Режим общего битрейта                    : Переменный
Общий поток                              : 2930 Кбит/сек

Видео
Идентификатор                            : 1091 (0x443)
Идентификатор меню                       : 1090 (0x442)
Формат                                   : AVC
Формат/Информация                        : Advanced Video Codec
Профиль формата                          :
Параметр CABAC формата                   : Да
Параметр ReFrames формата                : 4 кадра
Идентификатор кодека                     : 27
Продолжительность                        : 39 м.
Битрейт                                  : 2591 Кбит/сек
Ширина                                   : 720 пикселей
Высота                                   : 576 пикселей
Соотношение сторон                       : 16:9
Частота кадров                           : 25,000 кадров/сек
Стандарт вещания                         : PAL
Цветовое пространство                    : YUV
Субдискретизация насыщенности            : 4:2:0
Битовая глубина                          : 8 бит
Тип развёртки                            : Прогрессивная
Бит/(Пиксели*Кадры)                      : 0.250
Размер потока                            : 727 Мбайт (88%)
Основные цвета                           : BT.601 PAL
Характеристики трансфера                 : BT.470 System B, BT.470 System G
Коэффициенты матрицы                     : BT.601

Аудио
Идентификатор                            : 1092 (0x444)
Идентификатор меню                       : 1090 (0x442)
Формат                                   : MPEG Audio
Версия формата                           : Version 1
Профиль формата                          : Layer 2
Идентификатор кодека                     : 4
Продолжительность                        : 39 м.
Вид битрейта                             : Постоянный
Битрейт                                  : 192 Кбит/сек
Каналы                                   : 2 канала
Частота                                  : 48,0 КГц
Метод сжатия                             : С потерями
Задержка видео                           : 31 мс.
Размер потока                            : 53,9 Мбайт (7%)
Язык                                     : std
Язык, дополнительно                      : Clean effects

Скриншоты:



Время раздачи: Сб-Вс с 09:00 до 23:30 (до появления первых 3-5 скачавших)
 
Не забывайте говорить Спасибо. Не уходите с раздачи!   
Торрент: Зарегистрирован [09 сен 2016, 16:12] Для скачивания .torrent
необходима регистрация
Или скачать с помощью
MediaGet
Статус:
Проверен
 
.torrent скачан: 3 раз
Хэш: 68e8dfd79b022baa1551a1d4af29d8c21cad30d7
Размер: 822.51 МБ (862 460 716 байт)
Стать Автором раздачи
 
 
Раздал: 100 ГБ
Скачал: 0 байт
Ратио: Seed.
Сообщения: 85869
Зарегистрирован: 09 апр 2015, 22:31


  • Похожие торренты
    Ответы
    Просмотры
    Последнее сообщение

Вернуться в Флот

Кто сейчас на конференции

Сейчас эту тему просматривают: нет зарегистрированных пользователей и гости: 1

Ресурс не предоставляет электронные версии произведений, а занимается лишь коллекционированием и каталогизацией ссылок, присылаемых и публикуемых на форуме нашими читателями. Если вы являетесь правообладателем какого-либо представленного материала и не желаете чтобы ссылка на него находилась в нашем каталоге, свяжитесь с нами и мы незамедлительно удалим её. Файлы для обмена на трекере предоставлены пользователями сайта, и администрация не несёт ответственности за их содержание. Просьба не заливать файлы, защищенные авторскими правами, а также файлы нелегального содержания!