Мосфильм. Фабрика советских грез (2014) HDTVRip (2 серии из 2)

 
 Статистика раздачи 
Размер: 980.68 МБ   |  Зарегистрирован: 09 сен 2016, 00:07   |   .torrent скачан: 0 раз
Сидеров: 1  [ 0 байт/сек ]     Личеров: 0  [ 0 байт/сек ]  
  

Мосфильм. Фабрика советских грез (2014) HDTVRip (2 серии из 2)

Сообщение explosiveone » 09 сен 2016, 00:07

Мосфильм. Фабрика советских грез (2014) HDTVRip (2 серии из 2)

Производство: Россия, ООО "Телекомпания Идея"
Жанр: документальный, культура, киноведение, кинохроника

Участники: Вадим Абдрашитов, Марлен Хуциев, Фёдор Бондарчук, Александр Бородянский, Станислав Любшин, Евгений Миронов, Александр Митта, Карен Шахназаров, Марк Захаров, Лариса Удовиченко, Александр Шпагин, Фёдор Раззаков.

Режиссер: Игорь Тарасевич

Описание:
В конце 1927 года на Ленинских горах началось строительство огромного города кино. В порыве догнать и перегнать Голливуд молодая советская киностудия сразу стала действовать с размахом. Двум крошечным фабрикам Ханжонкова и Ермольева, из которых образовался "Мосфильм", и не снился такой масштаб. Вместе с государством киностудия переживала падения и взлёты. Его лучшие картины – это советские грёзы, однако это всегда был "штучный продукт"... Фильм рассказывает об этапах становления "Мосфильма", лучших фильмах и выдающихся режиссёрах, создававших славу главной киностудии страны.

Продолжительность: 2 х ~ 00:40:00
Качество видео: HDTVRip

Видео: Xvid, 704x400, ~1500 kbps
Аудио: MP3, 2 ch, 192.00 kbps, CBR
Код:
Код: Выделить всё
Общее
Полное имя                               : F:\КИНО\Мосфильм. Фабрика советских грез (DaVinci)\1. Мосфильм. Фабрика советских грез.avi
Формат                                   : AVI
Формат/Информация                        : Audio Video Interleave
Размер файла                             : 499 Мбайт
Продолжительность                        : 41 м. 2 с.
Общий поток                              : 1700 Кбит/сек
Библиотека кодирования                   : VirtualDub build 35491/release

Видео
Идентификатор                            : 0
Формат                                   : MPEG-4 Visual
Профиль формата                          : Advanced [email protected]
Параметр BVOP формата                    : 2
Параметр QPel формата                    : Нет
Параметр GMC формата                     : Без точки перехода
Параметр матрицы формата                 : Default (MPEG)
Режим смешивания                         : Сжатый битовый поток
Идентификатор кодека                     : XVID
Идентификатор кодека/Подсказка           : XviD
Продолжительность                        : 41 м. 2 с.
Битрейт                                  : 1498 Кбит/сек
Ширина                                   : 704 пикселя
Высота                                   : 400 пикселей
Соотношение сторон                       : 16:9
Частота кадров                           : 25,000 кадров/сек
Цветовое пространство                    : YUV
Субдискретизация насыщенности            : 4:2:0
Битовая глубина                          : 8 бит
Тип развёртки                            : Прогрессивная
Метод сжатия                             : С потерями
Бит/(Пиксели*Кадры)                      : 0.213
Размер потока                            : 440 Мбайт (88%)
Библиотека кодирования                   : XviD 73

Аудио
Идентификатор                            : 1
Формат                                   : MPEG Audio
Версия формата                           : Version 1
Профиль формата                          : Layer 3
Режим                                    : Joint stereo
Идентификатор кодека                     : 55
Идентификатор кодека/Подсказка           : MP3
Продолжительность                        : 41 м. 2 с.
Вид битрейта                             : Постоянный
Битрейт                                  : 192 Кбит/сек
Каналы                                   : 2 канала
Частота                                  : 48,0 КГц
Метод сжатия                             : С потерями
Размер потока                            : 56,4 Мбайт (11%)
Выравнивание                             : Разделение по промежуткам
Продолжительность промежутка             : 40  мс. (1,00 видеокадр)
Время предзагрузки промежутка            : 500  мс.

Скриншоты:


Время раздачи: с 18:00 до 23:00 (до появления первых 3-5 скачавших)
 
Не забывайте говорить Спасибо. Не уходите с раздачи!   
Торрент: Зарегистрирован [09 сен 2016, 00:07] Для скачивания .torrent
необходима регистрация
Или скачать с помощью
MediaGet
Статус:
Проверен
 
.torrent скачан: 0 раз
Хэш: 4ae9bcb4bc45a9cf884b0f5cbb0a8840be4175c0
Размер: 980.68 МБ (1 028 318 298 байт)
Стать Автором раздачи
 
 
Раздал: 100 ГБ
Скачал: 0 байт
Ратио: Seed.
Сообщения: 82653
Зарегистрирован: 09 апр 2015, 22:31


  • Похожие торренты
    Ответы
    Просмотры
    Последнее сообщение

Вернуться в Эпоха СССР (видео)

Кто сейчас на конференции

Сейчас эту тему просматривают: нет зарегистрированных пользователей и гости: 1

Ресурс не предоставляет электронные версии произведений, а занимается лишь коллекционированием и каталогизацией ссылок, присылаемых и публикуемых на форуме нашими читателями. Если вы являетесь правообладателем какого-либо представленного материала и не желаете чтобы ссылка на него находилась в нашем каталоге, свяжитесь с нами и мы незамедлительно удалим её. Файлы для обмена на трекере предоставлены пользователями сайта, и администрация не несёт ответственности за их содержание. Просьба не заливать файлы, защищенные авторскими правами, а также файлы нелегального содержания!