Шоколад / Chocolat (2016) HDRip [H.264] [MP4|1024x554]

 
 Статистика раздачи 
Размер: 1.88 ГБ   |  Зарегистрирован: 05 сен 2016, 23:53   |   .torrent скачан: 0 раз
Сидеров: 1  [ 0 байт/сек ]     Личеров: 0  [ 0 байт/сек ]  
  

Шоколад / Chocolat (2016) HDRip [H.264] [MP4|1024x554]

Сообщение explosiveone » 05 сен 2016, 23:53

Шоколад / Chocolat (2016) HDRip


Производство: Франция, Buenavista Films, Canal+ [fr], Centre National de la Cinématographie (CNC), Ciné
Жанр: Драма

Режиссер: Рошди Зем
Актеры: Омар Си, Джеймс Тьерре, Клотильда Эсме, Оливье Гурме, Фредерик Пьеро, Ноэми Львовски, Элис де Ланкесэ, Алекс Дека, Оливье Рабурден, Тибо де Монталембер

Описание:
Это история первого во Франции чернокожего клоуна, выступавшего в тандеме с белым клоуном, вышедшим было в тираж, а с появлением нового партнера вернувшим себе былую славу. Их номера были чрезвычайно популярны в конце XIX века, но интерес к ним был востребован преимущественно из-за того, что белый клоун издевался над чернокожим.


Возраст: 12+ (зрителям, достигшим 12 лет)
Рейтинг MPAA: PG-13 (детям до 13 лет просмотр нежелателен)

Продолжительность: 01:59:05
Качество видео: HDRip
Перевод: Дублированный iTunes
Вид субтитров: Вшитые отключаемые
Язык субтитров: Французский

Видео: AVC/H.264 (Main@L3.1), 1024x554 (1.85:1), 2000 Кбит/сек
Аудио #1: AAC, 2 канала, 128 Кбит/сек - русский (дублированный)
Аудио #2: AAC, 2 канала, 128 Кбит/сек - французский (оригинальный)
Код:
Код: Выделить всё
General
Complete name                            : C:\CREATE\264mod1\out\Chocolat.2016.576p.HDRip.AAC.x264.NNMclub.mp4
Format                                   : MPEG-4
Format profile                           : Base Media / Version 2
Codec ID                                 : mp42 (mp42/isom)
File size                                : 1.88 GiB
Duration                                 : 1h 59mn
Overall bit rate mode                    : Variable
Overall bit rate                         : 2 260 Kbps
Movie name                               : Chocolat (2015)
Performer                                : Roschdy Zem
Director                                 : Roschdy Zem
Genre                                    : Drame
ContentType                              : Short Film
Description                              : Du cirque au théâtre, de l'anonymat à la gloire, l'incroyable destin du clown Chocolat (Omar Sy),
Recorded date                            : 2016-02-03
Encoded date                             : UTC 2016-09-05 17:50:41
Tagged date                              : UTC 2016-09-05 17:57:05
Copyright                                : © 2015 Mandarin Cinéma / Gaumont / M6 Films - Korokoro
Cover                                    : Yes
Rating                                   : None
LongDescription                          : Du cirque au théâtre, de l'anonymat à la gloire, l'incroyable destin du clown Chocolat (Omar Sy), premier artiste noir de la scène française. Le duo inédit qu'il forme avec Footit (James Thierrée), va rencontrer un immense succès populaire dans le Paris de la Belle époque avant que la célébrité,  l'argent facile, le jeu et les discriminations n'usent leur amitié et la carrière de Chocolat. Le film retrace l'histoire de cet artiste hors du commun.
AppleStoreCountry                        : France
AppleStoreCatalogID                      : 1068485709
ContentRating                            : fr-movie|Tout public|000|

Video
ID                                       : 1
Format                                   : AVC
Format/Info                              : Advanced Video Codec
Format profile                           :
Format settings, CABAC                   : No
Format settings, ReFrames                : 3 frames
Codec ID                                 : avc1
Codec ID/Info                            : Advanced Video Coding
Duration                                 : 1h 59mn
Bit rate                                 : 2 000 Kbps
Width                                    : 1 024 pixels
Height                                   : 554 pixels
Display aspect ratio                     : 1.85:1
Frame rate mode                          : Variable
Frame rate                               : 24.000 fps
Minimum frame rate                       : 23.810 fps
Maximum frame rate                       : 24.390 fps
Color space                              : YUV
Chroma subsampling                       : 4:2:0
Bit depth                                : 8 bits
Scan type                                : Progressive
Bits/(Pixel*Frame)                       : 0.147
Stream size                              : 1.66 GiB (88%)
Writing library                          : x264 core 148 r2705+54 9f484c1 t_mod_Custom [8-bit@all X86]
Encoding settings                        : cabac=0 / ref=3 / deblock=1:-1:-1 / analyse=0x1:0x111 / me=umh / subme=7 / psy=1 / fade_compensate=0.00 / psy_rd=1.00:0.15 / mixed_ref=1 / me_range=32 / chroma_me=1 / trellis=2 / 8x8dct=0 / cqm=0 / deadzone=21,11 / fast_pskip=0 / chroma_qp_offset=-3 / threads=12 / lookahead_threads=2 / sliced_threads=0 / nr=0 / decimate=0 / interlaced=0 / bluray_compat=0 / constrained_intra=0 / fgo=0 / bframes=3 / b_pyramid=1 / b_adapt=2 / b_bias=0 / direct=3 / weightb=1 / open_gop=0 / weightp=2 / keyint=240 / keyint_min=24 / scenecut=40 / intra_refresh=0 / rc_lookahead=50 / rc=2pass / mbtree=1 / bitrate=2000 / ratetol=1.0 / qcomp=0.60 / qpmin=0:0:0 / qpmax=69:69:69 / qpstep=4 / cplxblur=20.0 / qblur=0.5 / vbv_maxrate=14000 / vbv_bufsize=14000 / nal_hrd=none / filler=0 / ip_ratio=1.40 / aq=3:0.90 / aq-sensitivity=10.00 / aq-factor=1.00:1.00:1.00 / aq2=1:0.90 / aq2-sensitivity=15.00 / aq2-factor=1.00:1.00:1.00 / aq3=3:[0.50:0.50]:[0.50:0.50]:[0.50:0.50]:[0.50:0.50] / aq3-sensitivity=10.00 / aq3-factor=[1.00:1.00]:[1.00:1.00]:[1.00:1.00] / aq3-boundary=192:64:24
Encoded date                             : UTC 2016-09-05 17:50:41
Tagged date                              : UTC 2016-09-05 17:56:30
Color range                              : Limited
Matrix coefficients                      : BT.709
Menus                                    : 5

Audio #1
ID                                       : 2
Format                                   : AAC
Format/Info                              : Advanced Audio Codec
Format profile                           : LC
Codec ID                                 : 40
Duration                                 : 1h 59mn
Source duration                          : 1h 59mn
Bit rate mode                            : Variable
Bit rate                                 : 128 Kbps
Maximum bit rate                         : 132 Kbps
Channel(s)                               : 2 channels
Channel positions                        : Front: L R
Sampling rate                            : 48.0 KHz
Frame rate                               : 46.875 fps (1024 spf)
Compression mode                         : Lossy
Stream size                              : 109 MiB (6%)
Source stream size                       : 109 MiB (6%)
Language                                 : Russian
Default                                  : Yes
Alternate group                          : 1
Encoded date                             : UTC 2016-09-05 17:50:41
Tagged date                              : UTC 2016-09-05 17:56:30

Audio #2
ID                                       : 3
Format                                   : AAC
Format/Info                              : Advanced Audio Codec
Format profile                           : LC
Codec ID                                 : 40
Duration                                 : 1h 59mn
Source duration                          : 1h 59mn
Bit rate mode                            : Variable
Bit rate                                 : 128 Kbps
Maximum bit rate                         : 132 Kbps
Channel(s)                               : 2 channels
Channel positions                        : Front: L R
Sampling rate                            : 48.0 KHz
Frame rate                               : 46.875 fps (1024 spf)
Compression mode                         : Lossy
Stream size                              : 109 MiB (6%)
Source stream size                       : 109 MiB (6%)
Language                                 : French
Default                                  : No
Alternate group                          : 1
Encoded date                             : UTC 2016-09-05 17:50:41
Tagged date                              : UTC 2016-09-05 17:56:30

Text
ID                                       : 4
Format                                   : Timed Text
Muxing mode                              : sbtl
Codec ID                                 : tx3g
Duration                                 : 1h 58mn
Bit rate mode                            : Variable
Bit rate                                 : 55 bps
Stream size                              : 47.8 KiB (0%)
Language                                 : French
Default                                  : Yes
Forced                                   : No
Alternate group                          : 2
Encoded date                             : UTC 2016-09-05 17:50:41
Tagged date                              : UTC 2016-09-05 17:56:30

Menu
ID                                       : 5
Codec ID                                 : text
Duration                                 : 1h 59mn
Language                                 : English
Encoded date                             : UTC 2016-09-05 17:56:30
Tagged date                              : UTC 2016-09-05 17:56:30
Bit rate mode                            : CBR
Menu For                                 : 1
00:00:00.000                             : Chapter 01
00:14:48.416                             : Chapter 02
00:29:34.332                             : Chapter 03
00:45:51.916                             : Chapter 04
00:59:31.333                             : Chapter 05
01:14:59.375                             : Chapter 06
01:30:02.000                             : Chapter 07
01:44:37.666                             : Chapter 08
01:59:03.875                             : Chapter 09

Скриншоты:


Время раздачи: 24/7 (круглосуточно) (до появления первых 3-5 скачавших)
 
Не забывайте говорить Спасибо. Не уходите с раздачи!   
Торрент: Зарегистрирован [05 сен 2016, 23:53] Для скачивания .torrent
необходима регистрация
Или скачать с помощью
MediaGet
Статус:
Проверен
 
.torrent скачан: 0 раз
Хэш: 856da7147427d8e0836c6e91ef4db6d4b57056f3
Размер: 1.88 ГБ (2 018 449 442 байт)
Стать Автором раздачи
 
 
Раздал: 100 ГБ
Скачал: 0 байт
Ратио: Seed.
Сообщения: 94059
Зарегистрирован: 09 апр 2015, 22:31


  • Похожие торренты
    Ответы
    Просмотры
    Последнее сообщение

Вернуться в Видео для мобильных устройств

Ресурс не предоставляет электронные версии произведений, а занимается лишь коллекционированием и каталогизацией ссылок, присылаемых и публикуемых на форуме нашими читателями. Если вы являетесь правообладателем какого-либо представленного материала и не желаете чтобы ссылка на него находилась в нашем каталоге, свяжитесь с нами и мы незамедлительно удалим её. Файлы для обмена на трекере предоставлены пользователями сайта, и администрация не несёт ответственности за их содержание. Просьба не заливать файлы, защищенные авторскими правами, а также файлы нелегального содержания!
cron