Д.З. Вибе. Лекция «Звёздная и планетная колыбель» (2014) WEBRip [H.264] [MP4|1920х1080]

 
 Статистика раздачи 
Размер: 744.31 МБ   |  Зарегистрирован: 05 сен 2016, 15:41   |   .torrent скачан: 1 раз
Сидеров: 1  [ 0 байт/сек ]     Личеров: 0  [ 0 байт/сек ]  
  

Д.З. Вибе. Лекция «Звёздная и планетная колыбель» (2014) WEBRip [H.264] [MP4|1920х1080]

Сообщение explosiveone » 05 сен 2016, 15:41

Д.З. Вибе. Лекция «Звёздная и планетная колыбель» (2014) WEBRip

Жанр: Лекция, Документальный

Ведущий: Д.З. Вибе

Описание:
Лекцию прочитал доктор физико-математических наук, заведующий отделом физики и эволюции звезд Института астрономии РАН Дмитрий Зигфридович Вибе.

Мы услышим историю открытий и исследований межзвездной среды нашей и других Галактик, о её эволюции и о том, как в ходе этой эволюции рождаются новые звёздные и планетные системы. Дмитрий Зигфридович рассказал о методах исследования химического состава звезд и межзвездной среды, о спектроскопии, о поисках учеными источника солнечной и звездной энергии.

Продолжительность: 01:05:05
Качество видео: WEBRip

Видео: AVC/H.264, 1920х1080, ~1470 Кбит/сек
Аудио: AAC, 2 ch, 126 Кбит/сек, VBR
Код:
Код: Выделить всё
Формат                                   : MPEG-4
Профиль формата                          : Base Media
Идентификатор кодека                     : isom (isom/iso2/avc1/mp41)
Размер файла                             : 744 Мбайт
Продолжительность                        : 1 ч. 5 м.
Режим общего битрейта                    : Переменный
Общий поток                              : 1599 Кбит/сек
Дата кодирования                         : UTC 2014-10-06 02:25:51
Дата пометки                             : UTC 2014-10-06 02:25:51

Видео
Идентификатор                            : 1
Формат                                   : AVC
Формат/Информация                        : Advanced Video Codec
Профиль формата                          : High@L4
Параметр CABAC формата                   : Да
Параметр ReFrames формата                : 3 кадра
Идентификатор кодека                     : avc1
Идентификатор кодека/Информация          : Advanced Video Coding
Продолжительность                        : 1 ч. 5 м.
Продолжительность оригинала              : 1 ч. 5 м.
Битрейт                                  : 1470 Кбит/сек
Ширина                                   : 1920 пикселей
Высота                                   : 1080 пикселей
Соотношение сторон                       : 16:9
Режим частоты кадров                     : Постоянный
Частота кадров                           : 25,000 кадров/сек
Цветовое пространство                    : YUV
Субдискретизация насыщенности            : 4:2:0
Битовая глубина                          : 8 бит
Тип развёртки                            : Прогрессивная
Бит/(Пиксели*Кадры)                      : 0.028
Размер потока                            : 684 Мбайт (92%)
Размер потока оригинала                  : 684 Мбайт (92%)
Дата кодирования                         : UTC 2014-10-06 02:25:51
Дата пометки                             : UTC 2014-10-06 02:25:51

Аудио
Идентификатор                            : 2
Формат                                   : AAC
Формат/Информация                        : Advanced Audio Codec
Профиль формата                          : LC
Идентификатор кодека                     : 40
Продолжительность                        : 1 ч. 5 м.
Вид битрейта                             : Переменный
Битрейт                                  : 126 Кбит/сек
Каналы                                   : 2 канала
Расположение каналов                     : Front: L R
Частота                                  : 44,1 КГц
Частота кадров                           : 43,066 кадра/сек (1024 spf)
Метод сжатия                             : С потерями
Размер потока                            : 58,5 Мбайт (8%)
Default                                  : Да
Alternate group                          : 1

Скриншоты:



Время раздачи: по возможности (до появления первых 3-5 скачавших)
 
Не забывайте говорить Спасибо. Не уходите с раздачи!   
Торрент: Зарегистрирован [05 сен 2016, 15:41] Для скачивания .torrent
необходима регистрация
Или скачать с помощью
MediaGet
Статус:
Проверен
 
.torrent скачан: 1 раз
Хэш: 9c7f2f93b297402214d49ad2d41769aadc66a9f6
Размер: 744.31 МБ (780 467 413 байт)
Стать Автором раздачи
 
 
Раздал: 100 ГБ
Скачал: 0 байт
Ратио: Seed.
Сообщения: 94048
Зарегистрирован: 09 апр 2015, 22:31


  • Похожие торренты
    Ответы
    Просмотры
    Последнее сообщение

Вернуться в Видео для мобильных устройств

Ресурс не предоставляет электронные версии произведений, а занимается лишь коллекционированием и каталогизацией ссылок, присылаемых и публикуемых на форуме нашими читателями. Если вы являетесь правообладателем какого-либо представленного материала и не желаете чтобы ссылка на него находилась в нашем каталоге, свяжитесь с нами и мы незамедлительно удалим её. Файлы для обмена на трекере предоставлены пользователями сайта, и администрация не несёт ответственности за их содержание. Просьба не заливать файлы, защищенные авторскими правами, а также файлы нелегального содержания!
cron