Cassius - Ibifornia (2016) [FLAC|Lossless|tracks + .cue] <House>

 
 Статистика раздачи 
Размер: 394.87 МБ   |  Зарегистрирован: 05 сен 2016, 13:40   |   .torrent скачан: 5 раз
Сидеров: 1  [ 0 байт/сек ]     Личеров: 0  [ 0 байт/сек ]  
  

Cassius - Ibifornia (2016) [FLAC|Lossless|tracks + .cue] <House>

Сообщение explosiveone » 05 сен 2016, 13:40

Cassius - Ibifornia (2016)


Год: 2016
Жанр: House
Издание: Ed Banger Records ‎– EDLP2016-2
Продолжительность: 00:56:23
Кодек: FLAC
Битрейт: Lossless
Тип рипа: tracks + .cue
Треклист:

01. The Missing (feat. Ryan Tedder)
02. Love Parade (feat. Mike D.)
03. Action (feat. Cat Power & Mike D.)
04. Go Up (feat. Cat Power & Pharrell Williams)
05. Ibifornia
06. Hey You! (feat. Ryan Tedder)
07. Feel Like Me (feat. Cat Power)
08. Blue Jean Smile (feat. John Gourley)
09. The Sound of Love (feat. JAW)
10. Ponce
Код:
Код: Выделить всё
Exact Audio Copy V1.1 from 23. June 2015

EAC extraction logfile from 31. August 2016, 22:19

Cassius / Ibifornia

Used drive  : HL-DT-STBDDVDRW CH12NS30   Adapter: 1  ID: 0

Read mode               : Secure
Utilize accurate stream : Yes
Defeat audio cache      : Yes
Make use of C2 pointers : No

Read offset correction                      : 6
Overread into Lead-In and Lead-Out          : No
Fill up missing offset samples with silence : Yes
Delete leading and trailing silent blocks   : No
Null samples used in CRC calculations       : Yes
Used interface                              : Native Win32 interface for Win NT & 2000
Gap handling                                : Appended to previous track

Used output format              : User Defined Encoder
Selected bitrate                : 1024 kBit/s
Quality                         : High
Add ID3 tag                     : No
Command line compressor         : C:\Program Files\FLAC\flac.exe
Additional command line options : -8 -V -T "ARTIST=%artist%" -T "TITLE=%title%" -T "ALBUM=%albumtitle%" -T "DATE=%year%" -T "TRACKNUMBER=%tracknr%" -T "ALBUMARTIST=%albumartist%" -T "DISCNUMBER=%cdnumber%" -T "MEDIA=CD" -T "TOTALDISCS=%totalcds%" -T "TOTALTRACKS=%numtracks%" %source% -o %dest%

TOC of the extracted CD

     Track |   Start  |  Length  | Start sector | End sector
    ---------------------------------------------------------
        1  |  0:00.00 |  4:15.10 |         0    |    19134
        2  |  4:15.10 |  5:29.37 |     19135    |    43846
        3  |  9:44.47 |  8:56.18 |     43847    |    84064
        4  | 18:40.65 |  5:32.41 |     84065    |   109005
        5  | 24:13.31 |  8:44.09 |    109006    |   148314
        6  | 32:57.40 |  3:40.48 |    148315    |   164862
        7  | 36:38.13 |  5:05.45 |    164863    |   187782
        8  | 41:43.58 |  4:02.04 |    187783    |   205936
        9  | 45:45.62 |  4:49.47 |    205937    |   227658
       10  | 50:35.34 |  5:47.05 |    227659    |   253688

Track  1

     Filename D:\Flux\Cassius - Ibifornia [2016]\01. Cassius - The Missing (Featuring Ryan Tedder & Jaw).wav

     Pre-gap length  0:00:02.00

     Peak level 100.0 %
     Extraction speed 3.3 X
     Track quality 100.0 %
     Test CRC D97916BD
     Copy CRC D97916BD
     Track not present in AccurateRip database
     Copy OK

Track  2

     Filename D:\Flux\Cassius - Ibifornia [2016]\02. Cassius - Love Parade (Featuring Mike D).wav

     Pre-gap length  0:00:02.76

     Peak level 100.0 %
     Extraction speed 1.6 X
     Track quality 100.0 %
     Test CRC 1A1879E1
     Copy CRC 1A1879E1
     Track not present in AccurateRip database
     Copy OK

Track  3

     Filename D:\Flux\Cassius - Ibifornia [2016]\03. Cassius - Action (Featuring Cat Power & Mike D).wav

     Pre-gap length  0:00:00.02

     Peak level 100.0 %
     Extraction speed 1.4 X
     Track quality 100.0 %
     Test CRC BAD90B50
     Copy CRC BAD90B50
     Track not present in AccurateRip database
     Copy OK

Track  4

     Filename D:\Flux\Cassius - Ibifornia [2016]\04. Cassius - Go Up (Featuring Cat Power & Pharrell Williams).wav

     Pre-gap length  0:00:01.42

     Peak level 99.8 %
     Extraction speed 1.5 X
     Track quality 100.0 %
     Test CRC 1590B9C2
     Copy CRC 1590B9C2
     Track not present in AccurateRip database
     Copy OK

Track  5

     Filename D:\Flux\Cassius - Ibifornia [2016]\05. Cassius - Ibifornia.wav

     Peak level 100.0 %
     Extraction speed 1.8 X
     Track quality 100.0 %
     Test CRC 7CBD840F
     Copy CRC 7CBD840F
     Track not present in AccurateRip database
     Copy OK

Track  6

     Filename D:\Flux\Cassius - Ibifornia [2016]\06. Cassius - Hey You! (Featuring Ryan Tedder).wav

     Peak level 100.0 %
     Extraction speed 1.7 X
     Track quality 100.0 %
     Test CRC D71E09FD
     Copy CRC D71E09FD
     Track not present in AccurateRip database
     Copy OK

Track  7

     Filename D:\Flux\Cassius - Ibifornia [2016]\07. Cassius - Feel Like Me (Featuring Cat Power).wav

     Pre-gap length  0:00:04.20

     Peak level 100.0 %
     Extraction speed 1.8 X
     Track quality 100.0 %
     Test CRC 8F74AEC5
     Copy CRC 8F74AEC5
     Track not present in AccurateRip database
     Copy OK

Track  8

     Filename D:\Flux\Cassius - Ibifornia [2016]\08. Cassius - Blue Jean Smile (Featuring John Gourley Of ''Portugal. The Man'').wav

     Peak level 100.0 %
     Extraction speed 1.8 X
     Track quality 100.0 %
     Test CRC D2A2D39A
     Copy CRC D2A2D39A
     Track not present in AccurateRip database
     Copy OK

Track  9

     Filename D:\Flux\Cassius - Ibifornia [2016]\09. Cassius - The Sound Of Love (Featuring Jaw).wav

     Peak level 100.0 %
     Extraction speed 1.9 X
     Track quality 100.0 %
     Test CRC C71B2B93
     Copy CRC C71B2B93
     Track not present in AccurateRip database
     Copy OK

Track 10

     Filename D:\Flux\Cassius - Ibifornia [2016]\10. Cassius - Ponce.wav

     Peak level 100.0 %
     Extraction speed 2.0 X
     Track quality 100.0 %
     Test CRC 19756B6B
     Copy CRC 19756B6B
     Track not present in AccurateRip database
     Copy OK

None of the tracks are present in the AccurateRip database

No errors occurred

End of status report

---- CUETools DB Plugin V2.1.6

[CTDB TOCID: hjYBVSv9A5w9TqOnMM7CFtLIRJ8-] found
Submit result: already submitted
Track | CTDB Status
  1   | (4/4) Accurately ripped
  2   | (4/4) Accurately ripped
  3   | (4/4) Accurately ripped
  4   | (4/4) Accurately ripped
  5   | (4/4) Accurately ripped
  6   | (4/4) Accurately ripped
  7   | (4/4) Accurately ripped
  8   | (4/4) Accurately ripped
  9   | (4/4) Accurately ripped
 10   | (4/4) Accurately ripped

==== Log checksum 04F4AE9B600E2A2F6FEF556B52D8A3ED861B75354B1C4A0DCCD4E08498B78339 ====
Код:
Код: Выделить всё
REM DATE 2016
REM DISCID 830D360A
REM COMMENT "ExactAudioCopy v1.1"
FILE "01. Cassius - The Missing (Featuring Ryan Tedder & Jaw).wav" WAVE
  TRACK 01 AUDIO
    INDEX 01 00:00:00
  TRACK 02 AUDIO
    INDEX 00 04:12:28
FILE "02. Cassius - Love Parade (Featuring Mike D).wav" WAVE
    INDEX 01 00:00:00
  TRACK 03 AUDIO
    INDEX 00 05:29:35
FILE "03. Cassius - Action (Featuring Cat Power & Mike D).wav" WAVE
    INDEX 01 00:00:00
  TRACK 04 AUDIO
    INDEX 00 08:54:61
FILE "04. Cassius - Go Up (Featuring Cat Power & Pharrell Williams).wav" WAVE
    INDEX 01 00:00:00
FILE "05. Cassius - Ibifornia.wav" WAVE
  TRACK 05 AUDIO
    INDEX 01 00:00:00
FILE "06. Cassius - Hey You! (Featuring Ryan Tedder).wav" WAVE
  TRACK 06 AUDIO
    INDEX 01 00:00:00
  TRACK 07 AUDIO
    INDEX 00 03:36:33
FILE "07. Cassius - Feel Like Me (Featuring Cat Power).wav" WAVE
    INDEX 01 00:00:00
FILE "08. Cassius - Blue Jean Smile (Featuring John Gourley Of ''Portugal. The Man'').wav" WAVE
  TRACK 08 AUDIO
    INDEX 01 00:00:00
FILE "09. Cassius - The Sound Of Love (Featuring Jaw).wav" WAVE
  TRACK 09 AUDIO
    INDEX 01 00:00:00
FILE "10. Cassius - Ponce.wav" WAVE
  TRACK 10 AUDIO
    INDEX 01 00:00:00
Код:
Код: Выделить всё
-----------------------

DON'T MODIFY THIS FILE

-----------------------

PERFORMER: auCDtect Task Manager, ver. 1.6.0 RC1 build 1.6.0.1
Copyright (c) 2008-2010 y-soft. All rights reserved
http:/y-soft.org

ANALYZER: auCDtect: CD records authenticity detector, version 0.8.2
Copyright (c) 2004 Oleg Berngardt. All rights reserved.
Copyright (c) 2004 Alexander Djourik. All rights reserved.

FILE: 10. Cassius - Ponce.flac
  Size: 39940173 Hash: 8DA9B3EDCB2E0EC6A546F7E83906531F Accuracy: -m0
  Conclusion: CDDA 100%
  Signature: 10FB2E7F5FB03B31DD7E901F43FAC56B425C9A44
FILE: 09. Cassius - The Sound Of Love (Featuring Jaw).flac
  Size: 36959301 Hash: C63215D63279E181B76206C1FDB995F2 Accuracy: -m0
  Conclusion: CDDA 100%
  Signature: 0BEB1E21D66C6CB438D16A613D79EBD767EB2777
FILE: 08. Cassius - Blue Jean Smile (Featuring John Gourley Of 'Portugal. The Man').flac
  Size: 30087675 Hash: 838C8785218BCF80F469B9096045AD39 Accuracy: -m0
  Conclusion: CDDA 100%
  Signature: 003CEB31B8F23C2541D4FD8CBB9FCB129D0AB50E
FILE: 07. Cassius - Feel Like Me (Featuring Cat Power).flac
  Size: 36523471 Hash: 70CBE33E61A8C6AB800D4FC107CCC53F Accuracy: -m0
  Conclusion: CDDA 100%
  Signature: 61D85F91753EDE797F8710A02AF0892CF2D60600
FILE: 06. Cassius - Hey You! (Featuring Ryan Tedder).flac
  Size: 28594076 Hash: 7A4F49636B03CD70E27AE837815D9194 Accuracy: -m0
  Conclusion: CDDA 100%
  Signature: 591971EFEC8B93FF8A9D1E09F095EAB82D0F0C5B
FILE: 05. Cassius - Ibifornia.flac
  Size: 62571767 Hash: EB593F438927EF5D636CE8F149274D01 Accuracy: -m0
  Conclusion: CDDA 100%
  Signature: 43815BD2EC3091AA94C5C8B029EC76F84B9F4532
FILE: 04. Cassius - Go Up (Featuring Cat Power & Pharrell Williams).flac
  Size: 38097185 Hash: 7CBE5840E09302D0FB8C1AE5CA32FFA7 Accuracy: -m0
  Conclusion: CDDA 100%
  Signature: 3994A157785FC0567B692C21FF6EAE2B033E8054
FILE: 03. Cassius - Action (Featuring Cat Power & Mike D).flac
  Size: 68756751 Hash: 34156C2CF7C89787B3B64EED409CD942 Accuracy: -m0
  Conclusion: CDDA 100%
  Signature: 85070A422A66977E575867A0F45100120DC90E90
FILE: 02. Cassius - Love Parade (Featuring Mike D).flac
  Size: 41674571 Hash: B68E1958387BD4402F5CB1DE6301B956 Accuracy: -m0
  Conclusion: CDDA 100%
  Signature: 2E6E8DC810B249C87694FBF3218903FB8579E236
FILE: 01. Cassius - The Missing (Featuring Ryan Tedder & Jaw).flac
  Size: 30695563 Hash: DD49D44F9FE0BC3674B5FC2302F70363 Accuracy: -m0
  Conclusion: CDDA 100%
  Signature: 77EA794BF3333BEA3AF7002ABAF8F2D452E549E2
Время раздачи: 24/7 До пяти скачавших. (до появления первых 3-5 скачавших)
 
Не забывайте говорить Спасибо. Не уходите с раздачи!   
Торрент: Зарегистрирован [05 сен 2016, 13:40] Скачать торрент
Скачать торрент
[ Размер 17.11 КБ / Просмотров 23 ]
Статус:
Проверен
 
.torrent скачан: 5 раз
Хэш: a5effe89b18c4e8db41b12aae1dcaf8e1344070d
Размер: 394.87 МБ (414 051 265 байт)
Стать Автором раздачи
 
 
Раздал: 100 ГБ
Скачал: 0 байт
Ратио: Seed.
Сообщения: 108651
Зарегистрирован: 09 апр 2015, 22:31


  • Похожие торренты
    Ответы
    Просмотры
    Последнее сообщение

Вернуться в House, Techno, Electro, Minimal (транзит Lossless)

Ресурс не предоставляет электронные версии произведений, а занимается лишь коллекционированием и каталогизацией ссылок, присылаемых и публикуемых на форуме нашими читателями. Если вы являетесь правообладателем какого-либо представленного материала и не желаете чтобы ссылка на него находилась в нашем каталоге, свяжитесь с нами и мы незамедлительно удалим её. Файлы для обмена на трекере предоставлены пользователями сайта, и администрация не несёт ответственности за их содержание. Просьба не заливать файлы, защищенные авторскими правами, а также файлы нелегального содержания!
cron