Мальчик на троих / Grandma’s Boy (2006)(Unrated) WEB-DLRip [H.264] [MP4|1024x436]

 
 Статистика раздачи 
Размер: 1.76 ГБ   |  Зарегистрирован: 04 сен 2016, 17:38   |   .torrent скачан: 0 раз
Сидеров: 1  [ 0 байт/сек ]     Личеров: 0  [ 0 байт/сек ]  
  

Мальчик на троих / Grandma’s Boy (2006)(Unrated) WEB-DLRip [H.264] [MP4|1024x436]

Сообщение explosiveone » 04 сен 2016, 17:38

Мальчик на троих / Grandma’s Boy (2006)(Unrated) WEB-DLRip

«Sex. Drugs. Nakedness. Rude language... And proud of it!»

Производство: США, Happy Madison Productions, Level 1 Entertainment, Wilshire 1
Жанр: Комедия

Режиссер: Николаус Гуссен
Актеры: Линда Карделлини, Аллен Коверт, Питер Данте, Ширли Джонс, Ширли Найт, Джоэль Мур, Кевин Нилон, Дорис Робертс, Ник Свардсон, Джона Хилл

Описание:
После того, как сосед по комнате тратит все их деньги на проституток, а конкурент крадет новейшую игру, 35-летний Алекс — ас по видеоиграм, остается ни с чем! Он вынужден переселиться к своей бабушке, и двум ее подругам.
Которые, как выяснилось, еще ох как могут зажигать! Фанаты-геймеры и травка, секс и вечеринки, отвязные старушки, шимпанзе и тэквандо! Сверхуморительный коктейль!


Возраст: 16+ (зрителям, достигшим 16 лет)
Рейтинг MPAA: R (лицам до 17 лет обязательно присутствие взрослого)

Продолжительность: 01:34:49
Качество видео: WEB-DLRip
Перевод: Дублированный
Вид субтитров: Вшитые отключаемые
Язык субтитров: Русский, Английский

Видео: AVC/H.264 (Main@L3.1), 1024x436 (2.35:1), 1800 Кбит/сек
Аудио #1: AAC, 2 канала, 128 Кбит/сек - русский (дублированный)
Аудио #2: AAC, 2 канала, 128 Кбит/сек - английский (оригинальный)
Код:
Код: Выделить всё
General
Complete name                            : C:\CREATE\264mod1\out\Grandma's.Boy.2006.576p.WEB-DLRip.AAC.x264.NNMclub.mp4
Format                                   : MPEG-4
Format profile                           : Base Media / Version 2
Codec ID                                 : mp42 (mp42/isom)
File size                                : 1.76 GiB
Duration                                 : 8h 44mn
Overall bit rate mode                    : Variable
Overall bit rate                         : 479 Kbps
Movie name                               : Grandma's Boy (Unrated)
Performer                                : Nicholaus Goossen
Director                                 : Nicholaus Goossen
Actor                                    : Linda Cardellini / Allen Covert / Peter Dante / Shirley Jones / Shirley Knight
Screenplay by                            : Nick Swardson / Barry Wernick / Allen Covert
Producer                                 : Allen Covert / Jack Giarraputo
Genre                                    : Comedy
ContentType                              : Short Film
Description                              : Now there's even more laughter to be had in this special uncut version of Grandma's Boy! From Adam Sandler's Happy Madison Productions comes this raucously funny comedy that'll have you rolling with laughter! Life is sweet for 35-year-old video game tester Alex (Allen Covert), until he's forced to move in with his overbearing grandmother Lilly (Doris Roberts) and her two roommates: oversexed Grace (Shirley Jones) and overmedicated Bea (Shirley Knight). To save face with his much younger co-workers and super-sexy new boss (Linda Cardellini), Alex brags about the "three hot babes" living with him, but soon that cat's out of the bag and the real party at Grandma's house has just begun!
Recorded date                            : 2006-01-06
Encoded date                             : UTC 2016-09-04 08:18:22
Tagged date                              : UTC 2016-09-04 08:26:09
Copyright                                : © 2005 Twentieth Century Fox
Cover                                    : Yes
Rating                                   : None
LongDescription                          : Now there's even more laughter to be had in this special uncut version of Grandma's Boy! From Adam Sandler's Happy Madison Productions comes this raucously funny comedy that'll have you rolling with laughter! Life is sweet for 35-year-old video game tester Alex (Allen Covert), until he's forced to move in with his overbearing grandmother Lilly (Doris Roberts) and her two roommates: oversexed Grace (Shirley Jones) and overmedicated Bea (Shirley Knight). To save face with his much younger co-workers and super-sexy new boss (Linda Cardellini), Alex brags about the "three hot babes" living with him, but soon that cat's out of the bag and the real party at Grandma's house has just begun!
AppleStoreCountry                        : United States
AppleStoreCatalogID                      : 278584415
ContentRating                            : mpaa|Unrated|???|

Video
ID                                       : 1
Format                                   : AVC
Format/Info                              : Advanced Video Codec
Format profile                           :
Format settings, CABAC                   : No
Format settings, ReFrames                : 3 frames
Codec ID                                 : avc1
Codec ID/Info                            : Advanced Video Coding
Duration                                 : 1h 34mn
Bit rate                                 : 1 800 Kbps
Width                                    : 1 024 pixels
Height                                   : 436 pixels
Display aspect ratio                     : 2.35:1
Frame rate mode                          : Variable
Frame rate                               : 23.976 (24000/1001) fps
Minimum frame rate                       : 23.810 fps
Maximum frame rate                       : 24.390 fps
Color space                              : YUV
Chroma subsampling                       : 4:2:0
Bit depth                                : 8 bits
Scan type                                : Progressive
Bits/(Pixel*Frame)                       : 0.168
Stream size                              : 1.19 GiB (68%)
Writing library                          : x264 core 148 r2705+54 9f484c1 t_mod_Custom [8-bit@all X86]
Encoding settings                        : cabac=0 / ref=3 / deblock=1:-3:-3 / analyse=0x1:0x111 / me=umh / subme=7 / psy=1 / fade_compensate=0.00 / psy_rd=0.95:0.20 / mixed_ref=1 / me_range=32 / chroma_me=1 / trellis=2 / 8x8dct=0 / cqm=0 / deadzone=21,11 / fast_pskip=0 / chroma_qp_offset=-3 / threads=12 / lookahead_threads=2 / sliced_threads=0 / nr=0 / decimate=0 / interlaced=0 / bluray_compat=0 / constrained_intra=0 / fgo=0 / bframes=3 / b_pyramid=1 / b_adapt=2 / b_bias=0 / direct=3 / weightb=1 / open_gop=0 / weightp=2 / keyint=240 / keyint_min=23 / scenecut=40 / intra_refresh=0 / rc_lookahead=50 / rc=2pass / mbtree=1 / bitrate=1800 / ratetol=1.0 / qcomp=0.60 / qpmin=0:0:0 / qpmax=69:69:69 / qpstep=4 / cplxblur=20.0 / qblur=0.5 / vbv_maxrate=14000 / vbv_bufsize=14000 / nal_hrd=none / filler=0 / ip_ratio=1.30 / aq=3:0.70 / aq-sensitivity=10.00 / aq-factor=1.00:1.00:1.00 / aq2=1:0.80 / aq2-sensitivity=15.00 / aq2-factor=1.00:1.00:1.00 / aq3=4:[0.50:0.50]:[0.50:0.50]:[0.50:0.50]:[0.50:0.50] / aq3-sensitivity=10.00 / aq3-factor=[1.00:1.00]:[1.00:1.00]:[1.00:1.00] / aq3-boundary=192:64:24
Encoded date                             : UTC 2016-09-04 08:18:22
Tagged date                              : UTC 2016-09-04 08:24:13
Color range                              : Limited
Matrix coefficients                      : BT.709
Menus                                    : 6

Audio #1
ID                                       : 2
Format                                   : AAC
Format/Info                              : Advanced Audio Codec
Format profile                           : LC
Codec ID                                 : 40
Duration                                 : 1h 34mn
Source duration                          : 1h 34mn
Bit rate mode                            : Variable
Bit rate                                 : 128 Kbps
Maximum bit rate                         : 132 Kbps
Channel(s)                               : 2 channels
Channel positions                        : Front: L R
Sampling rate                            : 48.0 KHz
Frame rate                               : 46.875 fps (1024 spf)
Compression mode                         : Lossy
Stream size                              : 86.8 MiB (5%)
Source stream size                       : 86.8 MiB (5%)
Language                                 : Russian
Default                                  : Yes
Alternate group                          : 1
Encoded date                             : UTC 2016-09-04 08:18:22
Tagged date                              : UTC 2016-09-04 08:24:13

Audio #2
ID                                       : 3
Format                                   : AAC
Format/Info                              : Advanced Audio Codec
Format profile                           : LC
Codec ID                                 : 40
Duration                                 : 8h 44mn
Source duration                          : 8h 44mn
Bit rate mode                            : Variable
Bit rate                                 : 128 Kbps
Maximum bit rate                         : 132 Kbps
Channel(s)                               : 2 channels
Channel positions                        : Front: L R
Sampling rate                            : 48.0 KHz
Frame rate                               : 46.875 fps (1024 spf)
Compression mode                         : Lossy
Stream size                              : 480 MiB (27%)
Source stream size                       : 480 MiB (27%)
Language                                 : English
Default                                  : No
Alternate group                          : 1
Encoded date                             : UTC 2016-09-04 08:18:22
Tagged date                              : UTC 2016-09-04 08:24:13

Text #1
ID                                       : 4
Format                                   : Timed Text
Muxing mode                              : sbtl
Codec ID                                 : tx3g
Duration                                 : 1h 14mn
Bit rate mode                            : Variable
Bit rate                                 : 2 bps
Stream size                              : 1.17 KiB (0%)
Language                                 : Russian
Default                                  : Yes
Forced                                   : No
Alternate group                          : 2
Encoded date                             : UTC 2016-09-04 08:18:22
Tagged date                              : UTC 2016-09-04 08:24:13

Text #2
ID                                       : 5
Format                                   : Timed Text
Muxing mode                              : sbtl
Codec ID                                 : tx3g
Duration                                 : 1h 29mn
Bit rate mode                            : Variable
Bit rate                                 : 90 bps
Stream size                              : 58.9 KiB (0%)
Language                                 : English
Default                                  : No
Forced                                   : No
Alternate group                          : 2
Encoded date                             : UTC 2016-09-04 08:18:22
Tagged date                              : UTC 2016-09-04 08:24:13

Menu
ID                                       : 6
Codec ID                                 : text
Duration                                 : 1h 34mn
Language                                 : English
Encoded date                             : UTC 2016-09-04 08:24:13
Tagged date                              : UTC 2016-09-04 08:24:13
Menu For                                 : 1
00:00:00.000                             : Main Titles/Evicted by Yuri
00:04:28.000                             : Weed Wedding Whack-Off
00:11:06.000                             : Brainasium/Your Shit's Weak
00:18:55.000                             : New Roommates/Scardey-Cat
00:25:22.000                             : The Levels...Not Sex
00:26:51.000                             : You Dirty Dopers
00:29:14.000                             : Dr.'s Deer Weed Munchies
00:32:03.000                             : Crazy Orgies
00:35:33.000                             : New Cable, New Vase
00:38:21.000                             : Dance Dance Revolution
00:40:44.000                             : Robot Ears
00:45:20.000                             : Grandma Visits/Dildo Lunch
00:47:38.999                             : Good Things Are Coming
00:52:40.000                             : Our Lady Health vs. Tommy's Burger
00:54:46.000                             : Sophie's Tea & Spanish Television
00:59:09.000                             : Frankenstein Party Starter
01:02:50.000                             : Baby's Milk/Push It
01:07:40.000                             : Hangover Photos/3000…?
01:12:20.000                             : Ingesting More Fuel (JP's Malfunction)
01:17:42.000                             : Monkey Meets Mr. Lee Ho
01:19:22.000                             : [censored] Energy
01:22:18.000                             : Looney Bin Joint/Sam Finds Proof
01:25:18.000                             : Conference Room Deathmatch
01:28:24.000                             : 6 Months Later…/End Titles
Bit rate mode                            : VBR

Скриншоты:


Время раздачи: 24/7 (круглосуточно) (до появления первых 3-5 скачавших)
 
Не забывайте говорить Спасибо. Не уходите с раздачи!   
Торрент: Зарегистрирован [04 сен 2016, 17:38] Для скачивания .torrent
необходима регистрация
Или скачать с помощью
MediaGet
Статус:
Проверен
 
.torrent скачан: 0 раз
Хэш: 0075c9541b84503f98311620bd9445d8778adb6a
Размер: 1.76 ГБ (1 885 929 732 байт)
Стать Автором раздачи
 
 
Раздал: 100 ГБ
Скачал: 0 байт
Ратио: Seed.
Сообщения: 94053
Зарегистрирован: 09 апр 2015, 22:31


  • Похожие торренты
    Ответы
    Просмотры
    Последнее сообщение

Вернуться в Видео для мобильных устройств

Ресурс не предоставляет электронные версии произведений, а занимается лишь коллекционированием и каталогизацией ссылок, присылаемых и публикуемых на форуме нашими читателями. Если вы являетесь правообладателем какого-либо представленного материала и не желаете чтобы ссылка на него находилась в нашем каталоге, свяжитесь с нами и мы незамедлительно удалим её. Файлы для обмена на трекере предоставлены пользователями сайта, и администрация не несёт ответственности за их содержание. Просьба не заливать файлы, защищенные авторскими правами, а также файлы нелегального содержания!
cron