Гибель «Адмирала Нахимова» (2002) DVB

 
 Статистика раздачи 
Размер: 1.03 ГБ   |  Зарегистрирован: 04 сен 2016, 01:25   |   .torrent скачан: 1 раз
Сидеров: 1  [ 0 байт/сек ]     Личеров: 0  [ 0 байт/сек ]  
  

Гибель «Адмирала Нахимова» (2002) DVB

Сообщение explosiveone » 04 сен 2016, 01:25

Гибель «Адмирала Нахимова» (2002) DVB

Жанр: Документальный

Участники: Режиссер: Александр Габниса

Описание:
Фильм об одной из самых страшных катастроф в истории Российского морского флота. 30 лет назад, в ночь с 31 августа на 1 сентября 1986 года, пароход «Адмирал Нахимов» столкнулся с балкером «Пётр Васёв» и затонул практически мгновенно всего в 2 милях от берега. Эта ночь стала последней в жизни более 800 его пассажиров. Что стало причиной столкновения — ошибка капитанов или воля судьбы?

Продолжительность: 00:45:00
Качество видео: DVB

Видео: AVC/H.264, [email protected], ~2985 kb/s
Аудио: MP2, 2 ch, 192 kb/s, CBR
Код:
Код: Выделить всё
Общее
Идентификатор                            : 16 (0x10)
Полное имя                               : Гибель_Адмирала Нахимова.ts
Формат                                   : MPEG-TS
Размер файла                             : 1,03 Гбайт
Продолжительность                        : 45 м.
Режим общего битрейта                    : Переменный
Общий поток                              : 3276 Кбит/сек

Видео
Идентификатор                            : 1108 (0x454)
Идентификатор меню                       : 108 (0x6C)
Формат                                   : MPEG Video
Версия формата                           : Version 2
Профиль формата                          : [email protected]
Параметр BVOP формата                    : Да
Параметр матрицы формата                 : Выборочная
Параметр GOP формата                     : Variable
Идентификатор кодека                     : 2
Продолжительность                        : 45 м.
Вид битрейта                             : Переменный
Битрейт                                  : 2985 Кбит/сек
Максимальный битрейт                     : 15,0 Мбит/сек
Ширина                                   : 704 пикселя
Высота                                   : 576 пикселей
Соотношение сторон                       : 16:9
Частота кадров                           : 25,000 кадров/сек
Стандарт вещания                         : PAL
Цветовое пространство                    : YUV
Субдискретизация насыщенности            : 4:2:0
Битовая глубина                          : 8 бит
Тип развёртки                            : Чересстрочная
Порядок развёртки                        : Верхнее поле первое
Метод сжатия                             : С потерями
Бит/(Пиксели*Кадры)                      : 0.294
Размер потока                            : 962 Мбайт (91%)

Аудио
Идентификатор                            : 2108 (0x83C)
Идентификатор меню                       : 108 (0x6C)
Формат                                   : MPEG Audio
Версия формата                           : Version 1
Профиль формата                          : Layer 2
Идентификатор кодека                     : 4
Продолжительность                        : 45 м.
Вид битрейта                             : Постоянный
Битрейт                                  : 128 Кбит/сек
Каналы                                   : 1 канал
Частота                                  : 48,0 КГц
Метод сжатия                             : С потерями
Задержка видео                           : 99 мс.
Размер потока                            : 41,2 Мбайт (4%)
Язык                                     : std
Язык, дополнительно                      : Clean effects

Текст
Идентификатор                            : 165 (0xA5)-100
Идентификатор меню                       : 108 (0x6C)
Формат                                   : Teletext

Меню
Идентификатор                            : 108 (0x6C)
Идентификатор меню                       : 108 (0x6C)
Продолжительность                        : 45 м.
Список                                   : 1108 (0x454) (MPEG Video) / 2108 (0x83C) (MPEG Audio, std) / 165 (0xA5) ()
Язык                                     :  / std

Скриншоты:



Время раздачи: Сб-Вс с 09:00 до 23:30 (до появления первых 3-5 скачавших)
 
Не забывайте говорить Спасибо. Не уходите с раздачи!   
Торрент: Зарегистрирован [04 сен 2016, 01:25] Для скачивания .torrent
необходима регистрация
Или скачать с помощью
MediaGet
Статус:
Проверен
 
.torrent скачан: 1 раз
Хэш: 332c5e4c1182d60dec3b2cb5e595dd40f9bfd438
Размер: 1.03 ГБ (1 107 137 264 байт)
Стать Автором раздачи
 
 
Раздал: 100 ГБ
Скачал: 0 байт
Ратио: Seed.
Сообщения: 82646
Зарегистрирован: 09 апр 2015, 22:31


  • Похожие торренты
    Ответы
    Просмотры
    Последнее сообщение

Вернуться в Флот

Кто сейчас на конференции

Сейчас эту тему просматривают: нет зарегистрированных пользователей и гости: 1

Ресурс не предоставляет электронные версии произведений, а занимается лишь коллекционированием и каталогизацией ссылок, присылаемых и публикуемых на форуме нашими читателями. Если вы являетесь правообладателем какого-либо представленного материала и не желаете чтобы ссылка на него находилась в нашем каталоге, свяжитесь с нами и мы незамедлительно удалим её. Файлы для обмена на трекере предоставлены пользователями сайта, и администрация не несёт ответственности за их содержание. Просьба не заливать файлы, защищенные авторскими правами, а также файлы нелегального содержания!