Черепашки-ниндзя 2 / Teenage Mutant Ninja Turtles: Out of the Shadows (2016) WEB-DLRip [H.264] [MP4|1024x436]

 
 Статистика раздачи 
Размер: 1.64 ГБ   |  Зарегистрирован: 30 авг 2016, 22:59   |   .torrent скачан: 0 раз
Сидеров: 1  [ 0 байт/сек ]     Личеров: 0  [ 0 байт/сек ]  
  

Черепашки-ниндзя 2 / Teenage Mutant Ninja Turtles: Out of the Shadows (2016) WEB-DLRip [H.264] [MP4|1024x436]

Сообщение explosiveone » 30 авг 2016, 22:59

Черепашки-ниндзя 2 / Teenage Mutant Ninja Turtles: Out of the Shadows (2016) WEB-DLRip

«Raise some shell»

Производство: США, Гонконг, Китай, Канада, Gama Entertainment Partners, Nickelodeon Movies, Paramount Pictures
Жанр: Фантастика, Боевик, Фэнтези, Приключения

Режиссер: Дэйв Грин
Актеры: Меган Фокс, Уилл Арнетт, Уильям Фихтнер, Стивен Эмелл, Лора Линни, Брайан Ти, Тайлер Перри, Алессандра Амбросио, Джереми Ховард, Пит Плошек, Ноэль Фишер, Алан Ритчсон, Дэнни Вудберн, Антуанетта Никпрелаж

Описание:
Долгое время черепашки-ниндзя скрывались от людей в лабиринтах городской канализации. На протяжении нескольких лет учитель Сплинтер обучал их боевым искусствам и прививал им чувство справедливости. В один прекрасный момент им пришлось подняться наверх, чтобы спасти Нью-Йорк от Шредера, предводителя Клана Футов, захватившего власть в Нью-Йорке. Вместе с отважным репортером Эйприл и ее оператором Верном, бесстрашные воины смогли одержать победу и очистить любимый город от преступности. Леонардо, Микеланджело, Рафаэль и Донателло нашли свое предназначение в этом мире и стали защитниками своего города. Они навели порядок в Нью-Йорке и с чистой совестью могли отправиться на покой, но однажды им вновь пришлось столкнуться с могущественным врагом, угрожающим их городу…


Возраст: 6+ (зрителям, достигшим 6 лет)
Рейтинг MPAA: PG-13 (детям до 13 лет просмотр нежелателен)

Продолжительность: 01:52:07
Качество видео: WEB-DLRip
Перевод: Дублированный - iTunes
Вид субтитров: Вшитые отключаемые
Язык субтитров: Русский

Видео: AVC/H.264 (Main@L3.1), 1024x436 (2.35:1), 1900 Кбит/сек
Аудио #1: AAC, 2 канала, 128 Кбит/сек - русский (дублированный)
Аудио #2: AAC, 2 канала, 128 Кбит/сек - английский (оригинальный)
Код:
Код: Выделить всё
General
Complete name                            : C:\CREATE\264mod1\out\Teenage.Mutant.Ninja.Turtles-Out.of.the.Shadows.2016.576p.WEB-DRip.mp4
Format                                   : MPEG-4
Format profile                           : Base Media / Version 2
Codec ID                                 : mp42 (mp42/isom)
File size                                : 1.64 GiB
Duration                                 : 1h 52mn
Overall bit rate mode                    : Variable
Overall bit rate                         : 2 088 Kbps
Movie name                               : Teenage Mutant Ninja Turtles: Out of the Shadows
Performer                                : Dave Green
Director                                 : Dave Green
Actor                                    : Megan Fox / Will Arnett / Laura Linney / Brian Tee / Tyler Perry
Screenplay by                            : Josh Appelbaum / André Nemec
Producer                                 : Michael Bay / Andrew Form / Brad Fuller / Galen Walker / Scott Mednick
Genre                                    : Kids & Family
ContentType                              : Short Film
Description                              : Michelangelo, Donatello, Leonardo, and Raphael are back to battle bigger, badder villains, alongside April O’Neil and a newcomer: the hockey-masked ally Casey Jones. After supervillain Shredder escapes custody, he joins forces with two dimwitted henchmen, Bebop and Rocksteady, to unleash a diabolical plan to take over the world. As the Turtles prepare to take on Shredder and his new crew, they find themselves facing an even greater threat with similar intentions: the notorious Krang.
Recorded date                            : 2016-06-03
Encoded date                             : UTC 2016-08-30 18:44:59
Tagged date                              : UTC 2016-08-30 18:50:16
Copyright                                : © MMXVI Paramount Pictures Corporation. All rights Reserved.
Cover                                    : Yes
Rating                                   : None
LongDescription                          : Michelangelo, Donatello, Leonardo, and Raphael are back to battle bigger, badder villains, alongside April O’Neil and a newcomer: the hockey-masked ally Casey Jones. After supervillain Shredder escapes custody, he joins forces with two dimwitted henchmen, Bebop and Rocksteady, to unleash a diabolical plan to take over the world. As the Turtles prepare to take on Shredder and his new crew, they find themselves facing an even greater threat with similar intentions: the notorious Krang.
AppleStoreCountry                        : United Kingdom
AppleStoreCatalogID                      : 1112687272
ContentRating                            : uk-movie|12|300|

Video
ID                                       : 1
Format                                   : AVC
Format/Info                              : Advanced Video Codec
Format profile                           :
Format settings, CABAC                   : No
Format settings, ReFrames                : 3 frames
Codec ID                                 : avc1
Codec ID/Info                            : Advanced Video Coding
Duration                                 : 1h 47mn
Bit rate                                 : 1 900 Kbps
Width                                    : 1 024 pixels
Height                                   : 436 pixels
Display aspect ratio                     : 2.35:1
Frame rate mode                          : Constant
Frame rate                               : 25.000 fps
Color space                              : YUV
Chroma subsampling                       : 4:2:0
Bit depth                                : 8 bits
Scan type                                : Progressive
Bits/(Pixel*Frame)                       : 0.170
Stream size                              : 1.43 GiB (87%)
Writing library                          : x264 core 148 r2705+54 9f484c1 t_mod_Custom [8-bit@all X86]
Encoding settings                        : cabac=0 / ref=3 / deblock=1:-3:-3 / analyse=0x1:0x111 / me=umh / subme=7 / psy=1 / fade_compensate=0.00 / psy_rd=1.00:0.10 / mixed_ref=1 / me_range=32 / chroma_me=1 / trellis=2 / 8x8dct=0 / cqm=0 / deadzone=21,11 / fast_pskip=0 / chroma_qp_offset=-3 / threads=12 / lookahead_threads=2 / sliced_threads=0 / nr=0 / decimate=0 / interlaced=0 / bluray_compat=0 / constrained_intra=0 / fgo=0 / bframes=3 / b_pyramid=1 / b_adapt=2 / b_bias=0 / direct=3 / weightb=1 / open_gop=0 / weightp=2 / keyint=250 / keyint_min=25 / scenecut=45 / intra_refresh=0 / rc_lookahead=50 / rc=2pass / mbtree=1 / bitrate=1900 / ratetol=1.0 / qcomp=0.60 / qpmin=0:0:0 / qpmax=69:69:69 / qpstep=4 / cplxblur=20.0 / qblur=0.5 / vbv_maxrate=14000 / vbv_bufsize=14000 / nal_hrd=none / filler=0 / ip_ratio=1.40 / aq=3:0.90 / aq-sensitivity=10.00 / aq-factor=1.00:1.00:1.00 / aq2=1:0.90 / aq2-sensitivity=15.00 / aq2-factor=1.00:1.00:1.00 / aq3=2:[0.50:0.50]:[0.50:0.50]:[0.50:0.50]:[0.50:0.50] / aq3-sensitivity=10.00 / aq3-factor=[1.00:1.00]:[1.00:1.00]:[1.00:1.00] / aq3-boundary=192:64:24
Encoded date                             : UTC 2016-08-30 18:44:59
Tagged date                              : UTC 2016-08-30 18:50:16
Color range                              : Limited
Matrix coefficients                      : BT.709
Menus                                    : 6

Audio #1
ID                                       : 2
Format                                   : AAC
Format/Info                              : Advanced Audio Codec
Format profile                           : LC
Codec ID                                 : 40
Duration                                 : 1h 52mn
Source duration                          : 1h 52mn
Bit rate mode                            : Variable
Bit rate                                 : 128 Kbps
Maximum bit rate                         : 133 Kbps
Channel(s)                               : 2 channels
Channel positions                        : Front: L R
Sampling rate                            : 48.0 KHz
Frame rate                               : 46.875 fps (1024 spf)
Compression mode                         : Lossy
Stream size                              : 103 MiB (6%)
Source stream size                       : 103 MiB (6%)
Language                                 : Russian
Default                                  : Yes
Alternate group                          : 1
Encoded date                             : UTC 2016-08-30 18:44:59
Tagged date                              : UTC 2016-08-30 18:50:16

Audio #2
ID                                       : 3
Format                                   : AAC
Format/Info                              : Advanced Audio Codec
Format profile                           : LC
Codec ID                                 : 40
Duration                                 : 1h 52mn
Source duration                          : 1h 52mn
Bit rate mode                            : Variable
Bit rate                                 : 128 Kbps
Maximum bit rate                         : 133 Kbps
Channel(s)                               : 2 channels
Channel positions                        : Front: L R
Sampling rate                            : 48.0 KHz
Frame rate                               : 46.875 fps (1024 spf)
Compression mode                         : Lossy
Stream size                              : 103 MiB (6%)
Source stream size                       : 103 MiB (6%)
Language                                 : English
Default                                  : No
Alternate group                          : 1
Encoded date                             : UTC 2016-08-30 18:44:59
Tagged date                              : UTC 2016-08-30 18:50:16

Text #1
ID                                       : 4
Format                                   : Timed Text
Muxing mode                              : sbtl
Codec ID                                 : tx3g
Duration                                 : 1h 44mn
Bit rate mode                            : Variable
Bit rate                                 : 1 bps
Stream size                              : 496 Bytes (0%)
Language                                 : Russian
Default                                  : Yes
Forced                                   : No
Alternate group                          : 2
Encoded date                             : UTC 2016-08-30 18:44:59
Tagged date                              : UTC 2016-08-30 18:50:16

Text #2
ID                                       : 5
Format                                   : Timed Text
Muxing mode                              : sbtl
Codec ID                                 : tx3g
Duration                                 : 1h 44mn
Bit rate mode                            : Variable
Bit rate                                 : 102 bps
Stream size                              : 78.3 KiB (0%)
Language                                 : Russian
Default                                  : No
Forced                                   : No
Alternate group                          : 2
Encoded date                             : UTC 2016-08-30 18:44:59
Tagged date                              : UTC 2016-08-30 18:50:16

Menu
ID                                       : 6
Codec ID                                 : text
Duration                                 : 1h 47mn
Language                                 : English
Encoded date                             : UTC 2016-08-30 18:50:16
Tagged date                              : UTC 2016-08-30 18:50:16
Menu For                                 : 1
00:00:00.000                             : 1
00:05:54.000                             : 2
00:12:17.000                             : 3
00:18:52.000                             : 4
00:26:37.000                             : 5
00:33:13.000                             : 6
00:38:55.000                             : 7
00:44:10.000                             : 8
00:49:39.000                             : 9
00:55:39.000                             : 10
01:02:00.000                             : 11
01:04:51.000                             : 12
01:14:31.000                             : 13
01:21:17.000                             : 14
01:28:09.000                             : 15
01:36:57.000                             : 16
01:41:50.999                             : 17
01:46:20.000                             : 18
Bit rate mode                            : VBR

Скриншоты:



Время раздачи: 24/7 (круглосуточно) (до появления первых 3-5 скачавших)
 
Не забывайте говорить Спасибо. Не уходите с раздачи!   
Торрент: Зарегистрирован [30 авг 2016, 22:59] Для скачивания .torrent
необходима регистрация
Или скачать с помощью
MediaGet
Статус:
Проверен
 
.torrent скачан: 0 раз
Хэш: aecbb5c7190728ff220bf0d7165832afaee01dfa
Размер: 1.64 ГБ (1 755 662 549 байт)
Стать Автором раздачи
 
 
Раздал: 100 ГБ
Скачал: 0 байт
Ратио: Seed.
Сообщения: 94043
Зарегистрирован: 09 апр 2015, 22:31


  • Похожие торренты
    Ответы
    Просмотры
    Последнее сообщение

Вернуться в Видео для мобильных устройств

Ресурс не предоставляет электронные версии произведений, а занимается лишь коллекционированием и каталогизацией ссылок, присылаемых и публикуемых на форуме нашими читателями. Если вы являетесь правообладателем какого-либо представленного материала и не желаете чтобы ссылка на него находилась в нашем каталоге, свяжитесь с нами и мы незамедлительно удалим её. Файлы для обмена на трекере предоставлены пользователями сайта, и администрация не несёт ответственности за их содержание. Просьба не заливать файлы, защищенные авторскими правами, а также файлы нелегального содержания!
cron