Непристойное поведение / Disturbing Behavior (1998) BDRip [H.264] НТВ+, РТР [MP4|1024x552]

 
 Статистика раздачи 
Размер: 1.34 ГБ   |  Зарегистрирован: 30 авг 2016, 22:57   |   .torrent скачан: 0 раз
Сидеров: 1  [ 0 байт/сек ]     Личеров: 0  [ 0 байт/сек ]  
  

Непристойное поведение / Disturbing Behavior (1998) BDRip [H.264] НТВ+, РТР [MP4|1024x552]

Сообщение explosiveone » 30 авг 2016, 22:57

Непристойное поведение / Disturbing Behavior (1998) BDRip НТВ+, РТР

«Perfection is every teenage student's co-pilot»

Производство: Австралия, США, Канада, 20th Century Fox Film Corporation
Жанр: Фантастика, Триллер, Детектив

Режиссер: Дэвид Наттер
Актеры: Джеймс Марсден, Кэти Холмс, Тобиас Мелер, Ник Стал, Стив Рейлсбэк, Брюс Гринвуд, Кэтрин Изабель, Уильям Сэдлер, Итэн Эмбри, Терри Дэвид Маллиган

Описание:
После самоубийства старшего брата родители отправляют трудного подростка Стива Кларка в милый солнечный городок Крэдл-Бэй на перевоспитание. Никаких аварий, передозировок наркотиков, никаких самоубийств.
В Крэдл-Бэй тинейджеры занимаются общественно-полезными делами, с юных лет предавая друг друга, зарабатывая тем самым степени отличия и награды. Но кто стоит за идеальной, параноидальной дисциплиной, очень напоминающей режим концлагеря?
Объединившись с собратьями по несчастью, юными изгоями Гэвином и Рейчел, одиноко противостоящими навязываемому общественному порядку, Стив бросается в нелегкую борьбу, цена которой - выжить, сохранив свою индивидуальность.


Возраст: 16+ (зрителям, достигшим 16 лет)
Рейтинг MPAA: R (лицам до 17 лет обязательно присутствие взрослого)

Продолжительность: 01:23:45
Качество видео: BDRip
Перевод: Двуголосый закадровый - НТВ+, Многоголосый закадровый - РТР
Вид субтитров: Вшитые отключаемые
Язык субтитров: Английский

Видео: AVC/H.264 (Main@L3.1), 1024x552 (1.85:1), 1900 Кбит/сек
Аудио #1: AAC, 2 канала, 128 Кбит/сек - русский (двуголосый закадровый)
Аудио #2: AAC, 2 канала, 128 Кбит/сек - русский (многоголосый закадровый)
Аудио #3: AAC, 2 канала, 128 Кбит/сек - английский (оригинальный)
Код:
Код: Выделить всё
General
Complete name                            : C:\CREATE\264mod1\out\Disturbing.Behavior.1998.576p.BDRip.AAC.x264.NNMclub.mp4
Format                                   : MPEG-4
Format profile                           : Base Media / Version 2
Codec ID                                 : mp42 (mp42/isom)
File size                                : 1.34 GiB
Duration                                 : 1h 23mn
Overall bit rate mode                    : Variable
Overall bit rate                         : 2 292 Kbps
Movie name                               : Disturbing Behavior
Performer                                : David Nutter
Director                                 : David Nutter
Actor                                    : James Marsden / Katie Holmes / Nick Stahl / Bruce Greenwood / William Sadler / Steve Railsback / Chad Donella / Ethan Embry / Katharine Isabelle
Screenplay by                            : Scott Rosenberg
Producer                                 : Jonathan Shestack / Max Wong / Armyan Bernstein
Genre                                    : Drama
ContentType                              : Short Film
Description                              : Three friends fight to retain their individuality in a town that has taken discipline through
Recorded date                            : 1998-07-24
Encoded date                             : UTC 2016-08-29 18:01:53
Tagged date                              : UTC 2016-08-29 18:06:56
Copyright                                : © 1998 Metro-Goldwyn-Mayer Pictures Inc
Cover                                    : Yes
Rating                                   : None
LongDescription                          : Three friends fight to retain their individuality in a town that has taken discipline through conformity to the extreme.
AppleStoreCountry                        : United Kingdom
AppleStoreCatalogID                      : 666323844
ContentRating                            : uk-movie|15|350|

Video
ID                                       : 1
Format                                   : AVC
Format/Info                              : Advanced Video Codec
Format profile                           :
Format settings, CABAC                   : No
Format settings, ReFrames                : 3 frames
Codec ID                                 : avc1
Codec ID/Info                            : Advanced Video Coding
Duration                                 : 1h 23mn
Bit rate                                 : 1 900 Kbps
Width                                    : 1 024 pixels
Height                                   : 552 pixels
Display aspect ratio                     : 1.85:1
Frame rate mode                          : Variable
Frame rate                               : 23.976 (24000/1001) fps
Minimum frame rate                       : 23.810 fps
Maximum frame rate                       : 24.390 fps
Color space                              : YUV
Chroma subsampling                       : 4:2:0
Bit depth                                : 8 bits
Scan type                                : Progressive
Bits/(Pixel*Frame)                       : 0.140
Stream size                              : 1.11 GiB (83%)
Writing library                          : x264 core 148 r2705+54 9f484c1 t_mod_Custom [8-bit@all X86]
Encoding settings                        : cabac=0 / ref=3 / deblock=1:-2:-2 / analyse=0x1:0x111 / me=umh / subme=7 / psy=1 / fade_compensate=0.00 / psy_rd=1.00:0.15 / mixed_ref=1 / me_range=32 / chroma_me=1 / trellis=2 / 8x8dct=0 / cqm=0 / deadzone=21,11 / fast_pskip=0 / chroma_qp_offset=-3 / threads=12 / lookahead_threads=2 / sliced_threads=0 / nr=0 / decimate=0 / interlaced=0 / bluray_compat=0 / constrained_intra=0 / fgo=0 / bframes=3 / b_pyramid=1 / b_adapt=2 / b_bias=0 / direct=3 / weightb=1 / open_gop=0 / weightp=2 / keyint=240 / keyint_min=23 / scenecut=45 / intra_refresh=0 / rc_lookahead=50 / rc=2pass / mbtree=1 / bitrate=1900 / ratetol=1.0 / qcomp=0.60 / qpmin=0:0:0 / qpmax=69:69:69 / qpstep=4 / cplxblur=20.0 / qblur=0.5 / vbv_maxrate=14000 / vbv_bufsize=14000 / nal_hrd=none / filler=0 / ip_ratio=1.30 / aq=3:0.70 / aq-sensitivity=10.00 / aq-factor=1.00:1.00:1.00 / aq2=1:0.70 / aq2-sensitivity=10.00 / aq2-factor=1.00:1.00:1.00 / aq3=4:[0.50:0.50]:[0.50:0.50]:[0.50:0.50]:[0.50:0.50] / aq3-sensitivity=10.00 / aq3-factor=[1.00:1.00]:[1.00:1.00]:[1.00:1.00] / aq3-boundary=192:64:24
Encoded date                             : UTC 2016-08-29 18:01:53
Tagged date                              : UTC 2016-08-29 18:06:14
Color range                              : Limited
Matrix coefficients                      : BT.709
Menus                                    : 6

Audio #1
ID                                       : 2
Format                                   : AAC
Format/Info                              : Advanced Audio Codec
Format profile                           : LC
Codec ID                                 : 40
Duration                                 : 1h 23mn
Source duration                          : 1h 23mn
Bit rate mode                            : Variable
Bit rate                                 : 128 Kbps
Maximum bit rate                         : 131 Kbps
Channel(s)                               : 2 channels
Channel positions                        : Front: L R
Sampling rate                            : 48.0 KHz
Frame rate                               : 46.875 fps (1024 spf)
Compression mode                         : Lossy
Stream size                              : 76.7 MiB (6%)
Source stream size                       : 76.7 MiB (6%)
Language                                 : Russian
Default                                  : Yes
Alternate group                          : 1
Encoded date                             : UTC 2016-08-29 18:01:53
Tagged date                              : UTC 2016-08-29 18:06:14

Audio #2
ID                                       : 3
Format                                   : AAC
Format/Info                              : Advanced Audio Codec
Format profile                           : LC
Codec ID                                 : 40
Duration                                 : 1h 23mn
Source duration                          : 1h 23mn
Bit rate mode                            : Variable
Bit rate                                 : 128 Kbps
Maximum bit rate                         : 131 Kbps
Channel(s)                               : 2 channels
Channel positions                        : Front: L R
Sampling rate                            : 48.0 KHz
Frame rate                               : 46.875 fps (1024 spf)
Compression mode                         : Lossy
Stream size                              : 76.7 MiB (6%)
Source stream size                       : 76.7 MiB (6%)
Language                                 : Russian
Default                                  : No
Alternate group                          : 1
Encoded date                             : UTC 2016-08-29 18:01:53
Tagged date                              : UTC 2016-08-29 18:06:14

Audio #3
ID                                       : 4
Format                                   : AAC
Format/Info                              : Advanced Audio Codec
Format profile                           : LC
Codec ID                                 : 40
Duration                                 : 1h 23mn
Source duration                          : 1h 23mn
Bit rate mode                            : Variable
Bit rate                                 : 128 Kbps
Maximum bit rate                         : 133 Kbps
Channel(s)                               : 2 channels
Channel positions                        : Front: L R
Sampling rate                            : 48.0 KHz
Frame rate                               : 46.875 fps (1024 spf)
Compression mode                         : Lossy
Stream size                              : 76.7 MiB (6%)
Source stream size                       : 76.7 MiB (6%)
Language                                 : English
Default                                  : No
Alternate group                          : 1
Encoded date                             : UTC 2016-08-29 18:01:53
Tagged date                              : UTC 2016-08-29 18:06:14

Text
ID                                       : 5
Format                                   : Timed Text
Muxing mode                              : sbtl
Codec ID                                 : tx3g
Duration                                 : 1h 23mn
Bit rate mode                            : Variable
Bit rate                                 : 62 bps
Stream size                              : 37.8 KiB (0%)
Language                                 : English
Default                                  : Yes
Forced                                   : No
Alternate group                          : 2
Encoded date                             : UTC 2016-08-29 18:01:53
Tagged date                              : UTC 2016-08-29 18:06:14

Menu
ID                                       : 6
Codec ID                                 : text
Duration                                 : 1h 23mn
Language                                 : English
Encoded date                             : UTC 2016-08-29 18:06:14
Tagged date                              : UTC 2016-08-29 18:06:14
Menu For                                 : 1
00:00:00.000                             : Logo/Main Title
00:03:06.601                             : Kiss Before Dying
00:07:11.469                             : New Kid In Town
00:10:07.602                             : Dickie & Peckerhead
00:12:02.869                             : Gavin's Freak, Role Call
00:16:50.103                             : Mentioning Allen
00:17:45.870                             : Dickie Gets Initiated
00:18:57.370                             : Meeting Caldicott
00:20:26.071                             : Rachel
00:22:52.438                             : Clean-Up On Aisle 1
00:25:28.438                             : "A Sinister Force"
00:26:35.438                             : The Rat Man
00:28:56.705                             : Dickie Changes Gears
00:30:16.072                             : Bonding At The SHoppe
00:32:34.306                             : And The Next One Is...
00:35:33.573                             : "... A Dead Man"
00:37:38.706                             : The New Gavin
00:38:48.940                             : Blue Ribbon Brawl
00:41:05.440                             : Outside Looking In
00:41:43.440                             : "It's All An Act"
00:43:45.074                             : Coming After Steve
00:44:37.441                             : "Bad Wrong Wrong Bad"
00:48:01.441                             : Fixing Lorna
00:49:20.941                             : "Why Not?!!!"
00:52:08.708                             : Brotherly Concern
00:52:49.576                             : Gavin's Goodbye
00:55:40.909                             : "I Had A Brother"
00:56:51.042                             : At Belknap/Mad Dash
01:00:35.042                             : "A Big Rat"
01:03:27.409                             : The Ambush
01:05:44.110                             : Right In The Eyes
01:08:49.477                             : Escape/Chug The Lug
01:11:18.544                             : Roadblock
01:13:04.412                             : The Final Plunge
01:16:38.812                             : A New Teach
01:17:44.312                             : End Credits
01:23:35.579                             : Chapter 37
Bit rate mode                            : VBR


Скриншоты:


Время раздачи: 24/7 (круглосуточно) (до появления первых 3-5 скачавших)
 
Не забывайте говорить Спасибо. Не уходите с раздачи!   
Торрент: Зарегистрирован [30 авг 2016, 22:57] Для скачивания .torrent
необходима регистрация
Или скачать с помощью
MediaGet
Статус:
Проверен
 
.torrent скачан: 0 раз
Хэш: 27413707f9555b71d77765130cac3726be3a848b
Размер: 1.34 ГБ (1 439 429 556 байт)
Стать Автором раздачи
 
 
Раздал: 100 ГБ
Скачал: 0 байт
Ратио: Seed.
Сообщения: 94068
Зарегистрирован: 09 апр 2015, 22:31


  • Похожие торренты
    Ответы
    Просмотры
    Последнее сообщение

Вернуться в Видео для мобильных устройств

Ресурс не предоставляет электронные версии произведений, а занимается лишь коллекционированием и каталогизацией ссылок, присылаемых и публикуемых на форуме нашими читателями. Если вы являетесь правообладателем какого-либо представленного материала и не желаете чтобы ссылка на него находилась в нашем каталоге, свяжитесь с нами и мы незамедлительно удалим её. Файлы для обмена на трекере предоставлены пользователями сайта, и администрация не несёт ответственности за их содержание. Просьба не заливать файлы, защищенные авторскими правами, а также файлы нелегального содержания!
cron