Yagya - Discography 7 Releases (2002-2014) [FLAC|Lossless|tracks+.cue, tracks] <Dub Techno, Minimal, Ambient>

 
 Статистика раздачи 
Размер: 2.69 ГБ   |  Зарегистрирован: 30 авг 2016, 02:46   |   .torrent скачан: 0 раз
Сидеров: 1  [ 0 байт/сек ]     Личеров: 0  [ 0 байт/сек ]  
  

Yagya - Discography 7 Releases (2002-2014) [FLAC|Lossless|tracks+.cue, tracks] <Dub Techno, Minimal, Ambient>

Сообщение explosiveone » 30 авг 2016, 02:46

Yagya
Discography

Icelandic producer Yagya (Aðalsteinn Guðmundsson
) has been creating atmospheres through melody and sounds for more than a decade.
A definitive member of the Thule Musik collective, Yagya also is known for his work as half of Sanasol and also the famed Plastic. A student of computer science at the University of Iceland Yagya spends his free time creating music on his computer. He concentrates on atmospheres and moods and tries to reflect the beauty of the world around him in the sounds of his music. He seeks influence in the works of Gas, Philip Glass, Basic Channel, Brian Eno and anything that is true to itself and it's ideas. Yagya concentrates on the softer side of music and avoids heavy rhythms. He finds harmony and beauty in the simple sounds of nature and wants his music to flow naturally through the listener.
Жанр
: Dub Techno, Minimal, Ambient • Страна: Iceland • Год: 2002-2014 • Тип издания: CD, Web, Vinyl
Аудиокодек: FLAC (*.flac) • Тип рипа: tracks+.cue, tracks • Продолжительность: 07:58:03 • Источник: What, bandcamp
Треклист:
Год выпуска: 2002
Продолжительность: 01:18:05
Треклист:

01. SnowFlake 1 (07:29)
02. SnowFlake 2 (06:21)
03. SnowFlake 3 (07:53)
04. SnowFlake 4 (06:10)
05. SnowFlake 5 (06:51)
06. SnowFlake 6 (09:15)
07. SnowFlake 7 (08:53)
08. SnowFlake 8 (08:59)
09. SnowFlake 9 (09:35)
10. SnowFlake 10 (06:39)
Код: Выделить всё
Exact Audio Copy V0.99 prebeta 4 from 23. January 2008

EAC extraction logfile from 17. October 2008, 15:21

Yagya / Rhythm Of Snow

Used drive  : _NEC    DVD_RW ND-3550A   Adapter: 0  ID: 0

Read mode               : Secure
Utilize accurate stream : Yes
Defeat audio cache      : Yes
Make use of C2 pointers : No

Read offset correction                      : 48
Overread into Lead-In and Lead-Out          : No
Fill up missing offset samples with silence : Yes
Delete leading and trailing silent blocks   : No
Null samples used in CRC calculations       : Yes
Used interface                              : Installed external ASPI interface
Gap handling                                : Appended to previous track

Used output format              : User Defined Encoder
Selected bitrate                : 1024 kBit/s
Quality                         : High
Add ID3 tag                     : No
Command line compressor         : C:\Program Files\EAC\FLAC\FLAC.EXE
Additional command line options : -8 -V -T "ARTIST=%a" -T "TITLE=%t" -T "ALBUM=%g" -T "DATE=%y" -T "TRACKNUMBER=%n" -T "GENRE=%m" -T "COMMENT=%e" %s -o %d

TOC of the extracted CD

     Track |   Start  |  Length  | Start sector | End sector
    ---------------------------------------------------------
        1  |  0:00.00 |  7:28.49 |         0    |    33648
        2  |  7:28.49 |  6:20.55 |     33649    |    62203
        3  | 13:49.29 |  7:52.61 |     62204    |    97664
        4  | 21:42.15 |  6:10.37 |     97665    |   125451
        5  | 27:52.52 |  6:50.68 |    125452    |   156269
        6  | 34:43.45 |  9:15.02 |    156270    |   197896
        7  | 43:58.47 |  8:53.07 |    197897    |   237878
        8  | 52:51.54 |  8:59.30 |    237879    |   278333
        9  | 61:51.09 |  9:34.53 |    278334    |   321436
       10  | 71:25.62 |  6:39.27 |    321437    |   351388

Track  1

     Filename D:\Yagya - Rhythm Of Snow\01 SnowFlake 01.wav

     Pre-gap length  0:00:02.00

     Peak level 100.0 %
     Track quality 100.0 %
     Test CRC AE888F7D
     Copy CRC AE888F7D
     Accurately ripped (confidence 4)  [58B97515]
     Copy OK

Track  2

     Filename D:\Yagya - Rhythm Of Snow\02 SnowFlake 02.wav

     Peak level 100.0 %
     Track quality 100.0 %
     Test CRC 89332232
     Copy CRC 89332232
     Accurately ripped (confidence 4)  [FDEA2CA8]
     Copy OK

Track  3

     Filename D:\Yagya - Rhythm Of Snow\03 SnowFlake 03.wav

     Peak level 100.0 %
     Track quality 100.0 %
     Test CRC 4B1E8939
     Copy CRC 4B1E8939
     Accurately ripped (confidence 4)  [D0713858]
     Copy OK

Track  4

     Filename D:\Yagya - Rhythm Of Snow\04 SnowFlake 04.wav

     Peak level 100.0 %
     Track quality 100.0 %
     Test CRC C6040866
     Copy CRC C6040866
     Accurately ripped (confidence 4)  [BC705F10]
     Copy OK

Track  5

     Filename D:\Yagya - Rhythm Of Snow\05 SnowFlake 05.wav

     Peak level 100.0 %
     Track quality 100.0 %
     Test CRC 784567A1
     Copy CRC 784567A1
     Accurately ripped (confidence 4)  [FC23D815]
     Copy OK

Track  6

     Filename D:\Yagya - Rhythm Of Snow\06 SnowFlake 06.wav

     Peak level 100.0 %
     Track quality 100.0 %
     Test CRC 25E7E879
     Copy CRC 25E7E879
     Accurately ripped (confidence 4)  [D3B6343F]
     Copy OK

Track  7

     Filename D:\Yagya - Rhythm Of Snow\07 SnowFlake 07.wav

     Peak level 100.0 %
     Track quality 100.0 %
     Test CRC 8D6048B1
     Copy CRC 8D6048B1
     Accurately ripped (confidence 4)  [2724D387]
     Copy OK

Track  8

     Filename D:\Yagya - Rhythm Of Snow\08 SnowFlake 08.wav

     Peak level 100.0 %
     Track quality 100.0 %
     Test CRC 42716A10
     Copy CRC 42716A10
     Accurately ripped (confidence 4)  [55333712]
     Copy OK

Track  9

     Filename D:\Yagya - Rhythm Of Snow\09 SnowFlake 09.wav

     Peak level 100.0 %
     Track quality 100.0 %
     Test CRC 1FA9B5B8
     Copy CRC 1FA9B5B8
     Accurately ripped (confidence 4)  [00E7A243]
     Copy OK

Track 10

     Filename D:\Yagya - Rhythm Of Snow\10 SnowFlake 10.wav

     Peak level 100.0 %
     Track quality 100.0 %
     Test CRC D8889D2D
     Copy CRC D8889D2D
     Accurately ripped (confidence 4)  [83BCC660]
     Copy OK

All tracks accurately ripped

No errors occurred

End of status report

 
Код: Выделить всё
REM GENRE Dub Techno, Minimal, Ambient
REM DATE 2002
REM DISCID 7D124D0A
REM COMMENT ExactAudioCopy v0.99pb4
PERFORMER "Yagya"
TITLE "Rhythm Of Snow"
FILE "01 SnowFlake 01.flac" WAVE
  TRACK 01 AUDIO
    TITLE "SnowFlake 01"
    INDEX 01 00:00:00
FILE "02 SnowFlake 02.flac" WAVE
  TRACK 02 AUDIO
    TITLE "SnowFlake 02"
    INDEX 01 00:00:00
FILE "03 SnowFlake 03.flac" WAVE
  TRACK 03 AUDIO
    TITLE "SnowFlake 03"
    INDEX 01 00:00:00
FILE "04 SnowFlake 04.flac" WAVE
  TRACK 04 AUDIO
    TITLE "SnowFlake 04"
    INDEX 01 00:00:00
FILE "05 SnowFlake 05.flac" WAVE
  TRACK 05 AUDIO
    TITLE "SnowFlake 05"
    INDEX 01 00:00:00
FILE "06 SnowFlake 06.flac" WAVE
  TRACK 06 AUDIO
    TITLE "SnowFlake 06"
    INDEX 01 00:00:00
FILE "07 SnowFlake 07.flac" WAVE
  TRACK 07 AUDIO
    TITLE "SnowFlake 07"
    INDEX 01 00:00:00
FILE "08 SnowFlake 08.flac" WAVE
  TRACK 08 AUDIO
    TITLE "SnowFlake 08"
    INDEX 01 00:00:00
FILE "09 SnowFlake 09.flac" WAVE
  TRACK 09 AUDIO
    TITLE "SnowFlake 09"
    INDEX 01 00:00:00
FILE "10 SnowFlake 10.flac" WAVE
  TRACK 10 AUDIO
    TITLE "SnowFlake 10"
    INDEX 01 00:00:00

 
#77Год выпуска: 2006
Продолжительность: 01:13:57
Треклист:

01. Wind And Thunder (06:44)
02. Choose (08:17)
03. As It Is (06:44)
04. But If These Words Are Heard (07:39)
05. We Lose Ourselves (08:05)
06. Their Blood Is Black And Yellow (07:14)
07. Like The Noise Of Great Waters (07:49)
08. Change (07:29)
09. A Very Long Daydream (07:05)
10. When They Stood, They Let Down Their Wings (06:51)
Код: Выделить всё
EAC extraction logfile from 1. May 2007, 17:59 for CD
Yagya / Will I Dream During The Process?

Used drive  : HL-DT-STRW/DVD GCC-4243N   Adapter: 1  ID: 0
Read mode   : Secure with NO C2, accurate stream, disable cache
Read offset correction : 102
Overread into Lead-In and Lead-Out : No

Used output format : C:\Program Files\FLAC\flac.exe   (User Defined Encoder)
                     128 kBit/s
                     Additional command line options : -V -8 -T "artist=%a" -T "title=%t" -T "album=%g" -T "date=%y" -T "tracknumber=%n" -T "genre=%m" %s

Other options      :
    Fill up missing offset samples with silence : Yes
    Delete leading and trailing silent blocks : No
    Native Win32 interface for Win NT & 2000

Track  1
     Filename E:\Rips\01 - Wind and thunder .wav

     Pre-gap length  0:00:02.00

     Peak level 96.6 %
     Track quality 100.0 %
     Test CRC 12ED91B9
     Copy CRC 12ED91B9
     Copy OK

Track  2
     Filename E:\Rips\02 - Choose .wav

     Peak level 96.6 %
     Track quality 100.0 %
     Test CRC 7D040ADD
     Copy CRC 7D040ADD
     Copy OK

Track  3
     Filename E:\Rips\03 - As it is .wav

     Peak level 97.6 %
     Track quality 100.0 %
     Test CRC 45F77EA0
     Copy CRC 45F77EA0
     Copy OK

Track  4
     Filename E:\Rips\04 - But if these words are heard .wav

     Peak level 96.6 %
     Track quality 100.0 %
     Test CRC 65ED0E6A
     Copy CRC 65ED0E6A
     Copy OK

Track  5
     Filename E:\Rips\05 - We lose ourselves .wav

     Peak level 96.8 %
     Track quality 99.9 %
     Test CRC F1573FA4
     Copy CRC F1573FA4
     Copy OK

Track  6
     Filename E:\Rips\06 - Their blood is black and yellow .wav

     Peak level 96.6 %
     Track quality 100.0 %
     Test CRC 8B903642
     Copy CRC 8B903642
     Copy OK

Track  7
     Filename E:\Rips\07 - Like the noise of great waters .wav

     Pre-gap length  0:00:01.44

     Peak level 97.5 %
     Track quality 100.0 %
     Test CRC F859523C
     Copy CRC F859523C
     Copy OK

Track  8
     Filename E:\Rips\08 - Change .wav

     Peak level 96.6 %
     Track quality 99.9 %
     Test CRC 53E4681A
     Copy CRC 53E4681A
     Copy OK

Track  9
     Filename E:\Rips\09 - A very long daydream .wav

     Peak level 96.6 %
     Track quality 99.9 %
     Test CRC 63FFBA50
     Copy CRC 63FFBA50
     Copy OK

Track 10
     Filename E:\Rips\10 - When they stood, they let down their wings .wav

     Peak level 96.6 %
     Track quality 100.0 %
     Test CRC CAB305BA
     Copy CRC CAB305BA
     Copy OK

No errors occured

End of status report

 
Код: Выделить всё
REM GENRE Electronica
REM DATE 2006
REM DISCID 7711550A
REM COMMENT "ExactAudioCopy v0.95b4"
PERFORMER "Yagya"
TITLE "Will I Dream During The Process?"
FILE "01 - Wind and thunder .wav" WAVE
  TRACK 01 AUDIO
    TITLE "Wind and thunder"
    PERFORMER "Yagya"
    INDEX 01 00:00:00
FILE "02 - Choose .wav" WAVE
  TRACK 02 AUDIO
    TITLE "Choose"
    PERFORMER "Yagya"
    INDEX 01 00:00:00
FILE "03 - As it is .wav" WAVE
  TRACK 03 AUDIO
    TITLE "As it is"
    PERFORMER "Yagya"
    INDEX 01 00:00:00
FILE "04 - But if these words are heard .wav" WAVE
  TRACK 04 AUDIO
    TITLE "But if these words are heard"
    PERFORMER "Yagya"
    INDEX 01 00:00:00
FILE "05 - We lose ourselves .wav" WAVE
  TRACK 05 AUDIO
    TITLE "We lose ourselves"
    PERFORMER "Yagya"
    INDEX 01 00:00:00
FILE "06 - Their blood is black and yellow .wav" WAVE
  TRACK 06 AUDIO
    TITLE "Their blood is black and yellow"
    PERFORMER "Yagya"
    INDEX 01 00:00:00
  TRACK 07 AUDIO
    TITLE "Like the noise of great waters"
    PERFORMER "Yagya"
    INDEX 00 07:12:35
FILE "07 - Like the noise of great waters .wav" WAVE
    INDEX 01 00:00:00
FILE "08 - Change .wav" WAVE
  TRACK 08 AUDIO
    TITLE "Change"
    PERFORMER "Yagya"
    INDEX 01 00:00:00
FILE "09 - A very long daydream .wav" WAVE
  TRACK 09 AUDIO
    TITLE "A very long daydream"
    PERFORMER "Yagya"
    INDEX 01 00:00:00
FILE "10 - When they stood, they let down their wings .wav" WAVE
  TRACK 10 AUDIO
    TITLE "When they stood, they let down their wings"
    PERFORMER "Yagya"
    INDEX 01 00:00:00

 
#77Год выпуска: 2009
Продолжительность: 01:02:50
Треклист:

01. Rigning Einn (06:04)
02. Rigning Tvö (06:39)
03. Rigning Þrjú (07:02)
04. Rigning Fjórir (03:12)
05. Rigning Fimm (06:40)
06. Rigning Sex (06:52)
07. Rigning Sjö (06:39)
08. Rigning Átta (05:30)
09. Rigning Níu (06:29)
10. Rigning Tíu (07:43)
Код: Выделить всё
Exact Audio Copy V0.99 prebeta 4 from 23. January 2008

EAC extraction logfile from 7. February 2009, 21:29

Yagya / Rigning

Used drive  : PLEXTOR CD-R   PREMIUM   Adapter: 2  ID: 0

Read mode               : Secure
Utilize accurate stream : Yes
Defeat audio cache      : Yes
Make use of C2 pointers : No

Read offset correction                      : 30
Overread into Lead-In and Lead-Out          : Yes
Fill up missing offset samples with silence : Yes
Delete leading and trailing silent blocks   : No
Null samples used in CRC calculations       : Yes
Used interface                              : Installed external ASPI interface
Gap handling                                : Appended to previous track

Used output format : Internal WAV Routines
Sample format      : 44.100 Hz; 16 Bit; Stereo

TOC of the extracted CD

     Track |   Start  |  Length  | Start sector | End sector
    ---------------------------------------------------------
        1  |  0:00.00 |  6:03.45 |         0    |    27269
        2  |  6:03.45 |  6:39.03 |     27270    |    57197
        3  | 12:42.48 |  7:02.13 |     57198    |    88860
        4  | 19:44.61 |  3:12.19 |     88861    |   103279
        5  | 22:57.05 |  6:39.55 |    103280    |   133259
        6  | 29:36.60 |  6:51.65 |    133260    |   164149
        7  | 36:28.50 |  6:39.03 |    164150    |   194077
        8  | 43:07.53 |  5:30.12 |    194078    |   218839
        9  | 48:37.65 |  6:29.19 |    218840    |   248033
       10  | 55:07.09 |  7:42.40 |    248034    |   282723

Track  1

     Filename C:\rip\01-Rigning_Einn.wav

     Pre-gap length  0:00:02.00

     Peak level 99.6 %
     Track quality 99.9 %
     Test CRC 3A7AA5B0
     Copy CRC 3A7AA5B0
     Track not present in AccurateRip database
     Copy OK

Track  2

     Filename C:\rip\02-Rigning_Tvo.wav

     Pre-gap length  0:00:02.00

     Peak level 99.6 %
     Track quality 100.0 %
     Test CRC CADD4297
     Copy CRC CADD4297
     Track not present in AccurateRip database
     Copy OK

Track  3

     Filename C:\rip\03-Rigning_Trju.wav

     Pre-gap length  0:00:02.00

     Peak level 99.6 %
     Track quality 100.0 %
     Test CRC 2F10CBBD
     Copy CRC 2F10CBBD
     Track not present in AccurateRip database
     Copy OK

Track  4

     Filename C:\rip\04-Rigning_Fjorir.wav

     Pre-gap length  0:00:02.00

     Peak level 56.3 %
     Track quality 99.9 %
     Test CRC 06770E8B
     Copy CRC 06770E8B
     Track not present in AccurateRip database
     Copy OK

Track  5

     Filename C:\rip\05-Rigning_Fimm.wav

     Pre-gap length  0:00:02.00

     Peak level 99.5 %
     Track quality 100.0 %
     Test CRC AE950195
     Copy CRC AE950195
     Track not present in AccurateRip database
     Copy OK

Track  6

     Filename C:\rip\06-Rigning_Sex.wav

     Pre-gap length  0:00:02.00

     Peak level 99.6 %
     Track quality 100.0 %
     Test CRC B416F398
     Copy CRC B416F398
     Track not present in AccurateRip database
     Copy OK

Track  7

     Filename C:\rip\07-Rigning_Sjo.wav

     Pre-gap length  0:00:02.00

     Peak level 99.6 %
     Track quality 100.0 %
     Test CRC 502B52C6
     Copy CRC 502B52C6
     Track not present in AccurateRip database
     Copy OK

Track  8

     Filename C:\rip\08-Rigning_Atta.wav

     Pre-gap length  0:00:02.00

     Peak level 99.6 %
     Track quality 100.0 %
     Test CRC E51FE348
     Copy CRC E51FE348
     Track not present in AccurateRip database
     Copy OK

Track  9

     Filename C:\rip\09-Rigning_Niu.wav

     Pre-gap length  0:00:02.00

     Peak level 100.0 %
     Track quality 100.0 %
     Test CRC E8EC4DEC
     Copy CRC E8EC4DEC
     Track not present in AccurateRip database
     Copy OK

Track 10

     Filename C:\rip\10-Rigning_Tiu.wav

     Pre-gap length  0:00:02.00

     Peak level 99.6 %
     Track quality 99.9 %
     Test CRC 0477ECB2
     Copy CRC 0477ECB2
     Track not present in AccurateRip database
     Copy OK

None of the tracks are present in the AccurateRip database

No errors occurred

End of status report

 
Код: Выделить всё
REM GENRE Dub Techno
REM DATE 2009
REM DISCID A40EB90A
REM COMMENT "ExactAudioCopy v0.99pb4"
PERFORMER "Yagya"
TITLE "Rigning"
FILE "01. Rigning Einn.wav" WAVE
  TRACK 01 AUDIO
    TITLE "Rigning Einn"
    PERFORMER "Yagya"
    FLAGS DCP
    INDEX 01 00:00:00
  TRACK 02 AUDIO
    TITLE "Rigning Tvö"
    PERFORMER "Yagya"
    FLAGS DCP
    INDEX 00 06:01:45
FILE "02. Rigning Tvö.wav" WAVE
    INDEX 01 00:00:00
  TRACK 03 AUDIO
    TITLE "Rigning þrjú"
    PERFORMER "Yagya"
    FLAGS DCP
    INDEX 00 06:37:03
FILE "03. Rigning þrjú.wav" WAVE
    INDEX 01 00:00:00
  TRACK 04 AUDIO
    TITLE "Rigning Fjórir"
    PERFORMER "Yagya"
    FLAGS DCP
    INDEX 00 07:00:13
FILE "04. Rigning Fjórir.wav" WAVE
    INDEX 01 00:00:00
  TRACK 05 AUDIO
    TITLE "Rigning Fimm"
    PERFORMER "Yagya"
    FLAGS DCP
    INDEX 00 03:10:19
FILE "05. Rigning Fimm.wav" WAVE
    INDEX 01 00:00:00
  TRACK 06 AUDIO
    TITLE "Rigning Sex"
    PERFORMER "Yagya"
    FLAGS DCP
    INDEX 00 06:37:55
FILE "06. Rigning Sex.wav" WAVE
    INDEX 01 00:00:00
  TRACK 07 AUDIO
    TITLE "Rigning Sjö"
    PERFORMER "Yagya"
    FLAGS DCP
    INDEX 00 06:49:65
FILE "07. Rigning Sjö.wav" WAVE
    INDEX 01 00:00:00
  TRACK 08 AUDIO
    TITLE "Rigning Átta"
    PERFORMER "Yagya"
    FLAGS DCP
    INDEX 00 06:37:03
FILE "08. Rigning Átta.wav" WAVE
    INDEX 01 00:00:00
  TRACK 09 AUDIO
    TITLE "Rigning Níu"
    PERFORMER "Yagya"
    FLAGS DCP
    INDEX 00 05:28:12
FILE "09. Rigning Tíu.wav" WAVE
    INDEX 01 00:00:00
  TRACK 10 AUDIO
    TITLE "Rigning Tiu"
    PERFORMER "Yagya"
    FLAGS DCP
    INDEX 00 06:27:19
FILE "10. Rigning Tíu.wav" WAVE
    INDEX 01 00:00:00

 
#77Год выпуска: 2012
Продолжительность: 00:57:17+00:58:02
Треклист:

CD1
01. Gabriel (feat. Elísabet Eyþórs) (05:39)
02. Cold Hands (06:14)
03. Tears Will Fall (feat. Ellen K) (05:12)
04. My Star Is A New Song (feat. Sigga Þóra) (05:34)
05. Reverbs And Delays (05:30)
06. The Phantom Of Us (06:22)
07. Drowned In Dreams (feat. Elísabet Eyþórs) (05:14)
08. Bright Moonlit Sky (feat. Esther Taila) (05:09)
09. The Salt On Her Cheeks (06:56)
10. Waiting For The Rain (feat. Ellen K) (05:27)

CD2
01. Gabriel (05:41)
02. Cold Hands (06:26)
03. Tears Will Fall (05:14)
04. My Star Is A New Song (05:37)
05. Reverbs And Delays (05:32)
06. The Phantom Of Us (06:32)
07. Drowned In Dreams (05:09)
08. Bright Moonlit Sky (05:18)
09. The Salt On Her Cheeks (07:06)
10. Waiting For The Rain (05:27)
Код: Выделить всё
Exact Audio Copy V1.0 beta 3 from 29. August 2011

EAC extraction logfile from 15. August 2012, 13:01

Yagya / The Inescapable Decay Of My Heart

Used drive  : TSSTcorpCDDVDW TS-L633L   Adapter: 0  ID: 2

Read mode               : Secure
Utilize accurate stream : Yes
Defeat audio cache      : Yes
Make use of C2 pointers : No

Read offset correction                      : 6
Overread into Lead-In and Lead-Out          : No
Fill up missing offset samples with silence : Yes
Delete leading and trailing silent blocks   : No
Null samples used in CRC calculations       : Yes
Used interface                              : Native Win32 interface for Win NT & 2000
Gap handling                                : Appended to previous track

Used output format              : User Defined Encoder
Selected bitrate                : 1024 kBit/s
Quality                         : High
Add ID3 tag                     : No
Command line compressor         : W:\Programme\Flac\flac.exe
Additional command line options : -8 -V -T "ARTIST=%artist%" -T "TITLE=%title%" -T "ALBUM=%albumtitle%" -T "DATE=%year%" -T "TRACKNUMBER=%tracknr%" -T "GENRE=%genre%" -T "PERFORMER=%albuminterpret%" -T "COMPOSER=%composer%" %haslyrics%--tag-from-file=LYRICS="%lyricsfile%"%haslyrics% -T "ALBUMARTIST=%albumartist%" -T "DISCNUMBER=%cdnumber%" -T "TOTALDISCS=%totalcds%" -T "TOTALTRACKS=%numtracks%" -T "COMMENT=%comment%" %source% -o %dest%

TOC of the extracted CD

     Track |   Start  |  Length  | Start sector | End sector
    ---------------------------------------------------------
        1  |  0:00.00 |  5:39.00 |         0    |    25424
        2  |  5:39.00 |  6:14.16 |     25425    |    53490
        3  | 11:53.16 |  5:11.72 |     53491    |    76887
        4  | 17:05.13 |  5:33.71 |     76888    |   101933
        5  | 22:39.09 |  5:29.40 |    101934    |   126648
        6  | 28:08.49 |  6:22.27 |    126649    |   155325
        7  | 34:31.01 |  5:13.52 |    155326    |   178852
        8  | 39:44.53 |  5:08.61 |    178853    |   202013
        9  | 44:53.39 |  6:56.24 |    202014    |   233237
       10  | 51:49.63 |  5:26.41 |    233238    |   257728

Track  1

     Filename E:\MP3\EAC\Yagya - The Inescapable Decay Of My Heart (FLAC)\CD 1\01 - Gabriel (feat. Elísabet Eyþórsdóttir).wav

     Pre-gap length  0:00:02.00

     Peak level 98.8 %
     Extraction speed 2.2 X
     Track quality 99.9 %
     Test CRC 811D5F78
     Copy CRC 811D5F78
     Track not present in AccurateRip database
     Copy OK

Track  2

     Filename E:\MP3\EAC\Yagya - The Inescapable Decay Of My Heart (FLAC)\CD 1\02 - Cold Hands.wav

     Peak level 98.8 %
     Extraction speed 2.8 X
     Track quality 100.0 %
     Test CRC 53A213DD
     Copy CRC 53A213DD
     Track not present in AccurateRip database
     Copy OK

Track  3

     Filename E:\MP3\EAC\Yagya - The Inescapable Decay Of My Heart (FLAC)\CD 1\03 - Tears Will Fall (feat. Ellen Kristjánsdóttir).wav

     Peak level 98.8 %
     Extraction speed 3.0 X
     Track quality 100.0 %
     Test CRC D884275E
     Copy CRC D884275E
     Track not present in AccurateRip database
     Copy OK

Track  4

     Filename E:\MP3\EAC\Yagya - The Inescapable Decay Of My Heart (FLAC)\CD 1\04 - My Star Is A New Song (feat. Sigga Þóra).wav

     Peak level 98.8 %
     Extraction speed 2.8 X
     Track quality 99.9 %
     Test CRC 0606AD55
     Copy CRC 0606AD55
     Track not present in AccurateRip database
     Copy OK

Track  5

     Filename E:\MP3\EAC\Yagya - The Inescapable Decay Of My Heart (FLAC)\CD 1\05 - Reverbs And Delays.wav

     Peak level 98.9 %
     Extraction speed 3.4 X
     Track quality 100.0 %
     Test CRC AEA1FC55
     Copy CRC AEA1FC55
     Track not present in AccurateRip database
     Copy OK

Track  6

     Filename E:\MP3\EAC\Yagya - The Inescapable Decay Of My Heart (FLAC)\CD 1\06 - The Phantom Of Us.wav

     Peak level 98.8 %
     Extraction speed 3.7 X
     Track quality 100.0 %
     Test CRC 884B2CFC
     Copy CRC 884B2CFC
     Track not present in AccurateRip database
     Copy OK

Track  7

     Filename E:\MP3\EAC\Yagya - The Inescapable Decay Of My Heart (FLAC)\CD 1\07 - Drowned In Dreams (feat. Elísabet Eyþórsdóttir).wav

     Peak level 98.8 %
     Extraction speed 3.3 X
     Track quality 99.9 %
     Test CRC 9B1B4E5C
     Copy CRC 9B1B4E5C
     Track not present in AccurateRip database
     Copy OK

Track  8

     Filename E:\MP3\EAC\Yagya - The Inescapable Decay Of My Heart (FLAC)\CD 1\08 - Bright Moonlit Sky (feat. Esther Taila).wav

     Peak level 98.8 %
     Extraction speed 4.0 X
     Track quality 100.0 %
     Test CRC 024DC038
     Copy CRC 024DC038
     Track not present in AccurateRip database
     Copy OK

Track  9

     Filename E:\MP3\EAC\Yagya - The Inescapable Decay Of My Heart (FLAC)\CD 1\09 - The Salt On Her Cheeks.wav

     Peak level 98.8 %
     Extraction speed 3.8 X
     Track quality 99.9 %
     Test CRC 1EFC708B
     Copy CRC 1EFC708B
     Track not present in AccurateRip database
     Copy OK

Track 10

     Filename E:\MP3\EAC\Yagya - The Inescapable Decay Of My Heart (FLAC)\CD 1\10 - Waiting For The Rain (feat. Ellen Kristjánsdóttir).wav

     Peak level 98.8 %
     Extraction speed 4.4 X
     Track quality 100.0 %
     Test CRC F36F3AF4
     Copy CRC F36F3AF4
     Track not present in AccurateRip database
     Copy OK

None of the tracks are present in the AccurateRip database

No errors occurred

End of status report

---- CUETools DB Plugin V2.1.3

[CTDB TOCID: vN8cmmI9mP7SbRxpf6B6x0Kt8yQ-] disk not present in database, Submit result: vN8cmmI9mP7SbRxpf6B6x0Kt8yQ- has been uploaded

==== Log checksum 915A9A68EA4F1D47B003917C6DEF5D1FE4BD6BAAAA94ACBB73D3BFF205E840F3 ====
--------------------------------------------------------------------------------------------------------------------------------------------------------

Exact Audio Copy V1.0 beta 3 from 29. August 2011

EAC extraction logfile from 15. August 2012, 13:40

Yagya / The Inescapable Decay Of My Heart

Used drive  : TSSTcorpCDDVDW TS-L633L   Adapter: 0  ID: 2

Read mode               : Secure
Utilize accurate stream : Yes
Defeat audio cache      : Yes
Make use of C2 pointers : No

Read offset correction                      : 6
Overread into Lead-In and Lead-Out          : No
Fill up missing offset samples with silence : Yes
Delete leading and trailing silent blocks   : No
Null samples used in CRC calculations       : Yes
Used interface                              : Native Win32 interface for Win NT & 2000
Gap handling                                : Appended to previous track

Used output format              : User Defined Encoder
Selected bitrate                : 1024 kBit/s
Quality                         : High
Add ID3 tag                     : No
Command line compressor         : W:\Programme\Flac\flac.exe
Additional command line options : -8 -V -T "ARTIST=%artist%" -T "TITLE=%title%" -T "ALBUM=%albumtitle%" -T "DATE=%year%" -T "TRACKNUMBER=%tracknr%" -T "GENRE=%genre%" -T "PERFORMER=%albuminterpret%" -T "COMPOSER=%composer%" %haslyrics%--tag-from-file=LYRICS="%lyricsfile%"%haslyrics% -T "ALBUMARTIST=%albumartist%" -T "DISCNUMBER=%cdnumber%" -T "TOTALDISCS=%totalcds%" -T "TOTALTRACKS=%numtracks%" -T "COMMENT=%comment%" %source% -o %dest%

TOC of the extracted CD

     Track |   Start  |  Length  | Start sector | End sector
    ---------------------------------------------------------
        1  |  0:00.00 |  5:41.01 |         0    |    25575
        2  |  5:41.01 |  6:25.68 |     25576    |    54518
        3  | 12:06.69 |  5:13.55 |     54519    |    78048
        4  | 17:20.49 |  5:36.45 |     78049    |   103293
        5  | 22:57.19 |  5:32.09 |    103294    |   128202
        6  | 28:29.28 |  6:32.27 |    128203    |   157629
        7  | 35:01.55 |  5:08.68 |    157630    |   180797
        8  | 40:10.48 |  5:17.65 |    180798    |   204637
        9  | 45:28.38 |  7:06.31 |    204638    |   236618
       10  | 52:34.69 |  5:26.68 |    236619    |   261136

Track  1

     Filename E:\MP3\EAC\Yagya - The Inescapable Decay Of My Heart (FLAC)\CD 2\01 - Gabriel.wav

     Pre-gap length  0:00:02.00

     Peak level 97.2 %
     Extraction speed 2.4 X
     Track quality 100.0 %
     Test CRC D3A58D6B
     Copy CRC D3A58D6B
     Track not present in AccurateRip database
     Copy OK

Track  2

     Filename E:\MP3\EAC\Yagya - The Inescapable Decay Of My Heart (FLAC)\CD 2\02 - Cold Hands.wav

     Peak level 97.7 %
     Extraction speed 2.8 X
     Track quality 100.0 %
     Test CRC BEE1FC0A
     Copy CRC BEE1FC0A
     Track not present in AccurateRip database
     Copy OK

Track  3

     Filename E:\MP3\EAC\Yagya - The Inescapable Decay Of My Heart (FLAC)\CD 2\03 - Tears Will Fall.wav

     Peak level 97.7 %
     Extraction speed 2.6 X
     Track quality 99.9 %
     Test CRC A9801239
     Copy CRC A9801239
     Track not present in AccurateRip database
     Copy OK

Track  4

     Filename E:\MP3\EAC\Yagya - The Inescapable Decay Of My Heart (FLAC)\CD 2\04 - My Star Is A New Song.wav

     Peak level 97.7 %
     Extraction speed 3.3 X
     Track quality 100.0 %
     Test CRC 4FC5D9CD
     Copy CRC 4FC5D9CD
     Track not present in AccurateRip database
     Copy OK

Track  5

     Filename E:\MP3\EAC\Yagya - The Inescapable Decay Of My Heart (FLAC)\CD 2\05 - Reverbs And Delays.wav

     Peak level 97.5 %
     Extraction speed 3.5 X
     Track quality 100.0 %
     Test CRC 76950011
     Copy CRC 76950011
     Track not present in AccurateRip database
     Copy OK

Track  6

     Filename E:\MP3\EAC\Yagya - The Inescapable Decay Of My Heart (FLAC)\CD 2\06 - The Phantom Of Us.wav

     Peak level 97.7 %
     Extraction speed 3.8 X
     Track quality 100.0 %
     Test CRC E644E65E
     Copy CRC E644E65E
     Track not present in AccurateRip database
     Copy OK

Track  7

     Filename E:\MP3\EAC\Yagya - The Inescapable Decay Of My Heart (FLAC)\CD 2\07 - Drowned In Dreams.wav

     Peak level 96.9 %
     Extraction speed 3.8 X
     Track quality 100.0 %
     Test CRC 6BA23D23
     Copy CRC 6BA23D23
     Track not present in AccurateRip database
     Copy OK

Track  8

     Filename E:\MP3\EAC\Yagya - The Inescapable Decay Of My Heart (FLAC)\CD 2\08 - Bright Moonlit Sky.wav

     Peak level 96.8 %
     Extraction speed 4.0 X
     Track quality 100.0 %
     Test CRC 59444B28
     Copy CRC 59444B28
     Track not present in AccurateRip database
     Copy OK

Track  9

     Filename E:\MP3\EAC\Yagya - The Inescapable Decay Of My Heart (FLAC)\CD 2\09 - The Salt On Her Cheeks.wav

     Peak level 97.4 %
     Extraction speed 4.4 X
     Track quality 100.0 %
     Test CRC EFE5262F
     Copy CRC EFE5262F
     Track not present in AccurateRip database
     Copy OK

Track 10

     Filename E:\MP3\EAC\Yagya - The Inescapable Decay Of My Heart (FLAC)\CD 2\10 - Waiting For The Rain.wav

     Peak level 97.7 %
     Extraction speed 4.4 X
     Track quality 100.0 %
     Test CRC 113B7319
     Copy CRC 113B7319
     Track not present in AccurateRip database
     Copy OK

None of the tracks are present in the AccurateRip database

No errors occurred

End of status report

---- CUETools DB Plugin V2.1.3

[CTDB TOCID: 9fCWtL.ALxcrnw7apFFDFgI9IKQ-] found, Submit result: already submitted
[10593fc2] (1/1) Accurately ripped

==== Log checksum 4E17BD9B6259C3B9B62A6B0BA9A803658E95D9999BF2B7D3531E2159D1CCEE25 ====

 
Код: Выделить всё
REM GENRE "Dub Techno"
REM DATE 2012
REM DISCID 770D6C0A
REM COMMENT "ExactAudioCopy v1.0b3"
PERFORMER "Yagya"
TITLE "The Inescapable Decay Of My Heart"
FILE "01 - Gabriel (feat. Elнsabet Eyюуrsdуttir).wav" WAVE
  TRACK 01 AUDIO
    TITLE "Gabriel (feat. Elнsabet Eyюуrsdуttir)"
    PERFORMER "Yagya"
    ISRC JPR001292386
    INDEX 01 00:00:00
FILE "02 - Cold Hands.wav" WAVE
  TRACK 02 AUDIO
    TITLE "Cold Hands"
    PERFORMER "Yagya"
    ISRC JPR001292387
    INDEX 01 00:00:00
FILE "03 - Tears Will Fall (feat. Ellen Kristjбnsdуttir).wav" WAVE
  TRACK 03 AUDIO
    TITLE "Tears Will Fall (feat. Ellen Kristjбnsdуttir)"
    PERFORMER "Yagya"
    ISRC JPR001292388
    INDEX 01 00:00:00
FILE "04 - My Star Is A New Song (feat. Sigga Юуra).wav" WAVE
  TRACK 04 AUDIO
    TITLE "My Star Is A New Song (feat. Sigga Юуra)"
    PERFORMER "Yagya"
    ISRC JPR001292389
    INDEX 01 00:00:00
FILE "05 - Reverbs And Delays.wav" WAVE
  TRACK 05 AUDIO
    TITLE "Reverbs And Delays"
    PERFORMER "Yagya"
    ISRC JPR001292390
    INDEX 01 00:00:00
FILE "06 - The Phantom Of Us.wav" WAVE
  TRACK 06 AUDIO
    TITLE "The Phantom Of Us"
    PERFORMER "Yagya"
    ISRC JPR001292391
    INDEX 01 00:00:00
FILE "07 - Drowned In Dreams (feat. Elнsabet Eyюуrsdуttir).wav" WAVE
  TRACK 07 AUDIO
    TITLE "Drowned In Dreams (feat. Elнsabet Eyюуrsdуttir)"
    PERFORMER "Yagya"
    ISRC JPR001292392
    INDEX 01 00:00:00
FILE "08 - Bright Moonlit Sky (feat. Esther Taila).wav" WAVE
  TRACK 08 AUDIO
    TITLE "Bright Moonlit Sky (feat. Esther Taila)"
    PERFORMER "Yagya"
    ISRC JPR001292393
    INDEX 01 00:00:00
FILE "09 - The Salt On Her Cheeks.wav" WAVE
  TRACK 09 AUDIO
    TITLE "The Salt On Her Cheeks"
    PERFORMER "Yagya"
    ISRC JPR001292394
    INDEX 01 00:00:00
FILE "10 - Waiting For The Rain (feat. Ellen Kristjбnsdуttir).wav" WAVE
  TRACK 10 AUDIO
    TITLE "Waiting For The Rain (feat. Ellen Kristjбnsdуttir)"
    PERFORMER "Yagya"
    ISRC JPR001292395
    INDEX 01 00:00:00
---------------------------------------------------------------------------------------

REM GENRE "Dub Techno"
REM DATE 2012
REM DISCID 6C0D990A
REM COMMENT "ExactAudioCopy v1.0b3"
PERFORMER "Yagya"
TITLE "The Inescapable Decay Of My Heart"
FILE "01 - Gabriel.wav" WAVE
  TRACK 01 AUDIO
    TITLE "Gabriel"
    PERFORMER "Yagya"
    ISRC JPR001292396
    INDEX 01 00:00:00
FILE "02 - Cold Hands.wav" WAVE
  TRACK 02 AUDIO
    TITLE "Cold Hands"
    PERFORMER "Yagya"
    ISRC JPR001292397
    INDEX 01 00:00:00
FILE "03 - Tears Will Fall.wav" WAVE
  TRACK 03 AUDIO
    TITLE "Tears Will Fall"
    PERFORMER "Yagya"
    ISRC JPR001292398
    INDEX 01 00:00:00
FILE "04 - My Star Is A New Song.wav" WAVE
  TRACK 04 AUDIO
    TITLE "My Star Is A New Song"
    PERFORMER "Yagya"
    ISRC JPR001292399
    INDEX 01 00:00:00
FILE "05 - Reverbs And Delays.wav" WAVE
  TRACK 05 AUDIO
    TITLE "Reverbs And Delays"
    PERFORMER "Yagya"
    ISRC JPR001292400
    INDEX 01 00:00:00
FILE "06 - The Phantom Of Us.wav" WAVE
  TRACK 06 AUDIO
    TITLE "The Phantom Of Us"
    PERFORMER "Yagya"
    ISRC JPR001292401
    INDEX 01 00:00:00
FILE "07 - Drowned In Dreams.wav" WAVE
  TRACK 07 AUDIO
    TITLE "Drowned In Dreams"
    PERFORMER "Yagya"
    ISRC JPR001292402
    INDEX 01 00:00:00
FILE "08 - Bright Moonlit Sky.wav" WAVE
  TRACK 08 AUDIO
    TITLE "Bright Moonlit Sky"
    PERFORMER "Yagya"
    ISRC JPR001292403
    INDEX 01 00:00:00
FILE "09 - The Salt On Her Cheeks.wav" WAVE
  TRACK 09 AUDIO
    TITLE "The Salt On Her Cheeks"
    PERFORMER "Yagya"
    ISRC JPR001292404
    INDEX 01 00:00:00
FILE "10 - Waiting For The Rain.wav" WAVE
  TRACK 10 AUDIO
    TITLE "Waiting For The Rain"
    PERFORMER "Yagya"
    ISRC JPR001292405
    INDEX 01 00:00:00

 
#77Год выпуска: 2014
Продолжительность: 00:23:06
Треклист:

01. Rigning Sjö (Original) (06:40)
02. Rigning Sjö (Mark E Remix) (08:42)
03. Rigning Sjö (Dennis Kane's E-Train Mix) (07:44)
Код: Выделить всё
-----------------------

DON'T MODIFY THIS FILE

-----------------------

PERFORMER: auCDtect Task Manager, ver. 1.5.1RC6 build 1.5.1.7
Copyright (c) 2008-2010 y-soft. All rights reserved
[url=http://y-soft.org]http://y-soft.org[/url]

ANALYZER: auCDtect: CD records authenticity detector, version 0.8.2
Copyright (c) 2004 Oleg Berngardt. All rights reserved.
Copyright (c) 2004 Alexander Djourik. All rights reserved.

FILE: 03. Rigning Sjö (Dennis Kane's E-Train Mix).flac
  Size: 89937259 Hash: 7E60B53D9AF8E4C207A8AAD1A66AAF7C Accuracy: -m0
  Conclusion: MPEG 100%
  Signature: A17FD8DC9424DF2A820F4BE77B91071353A21EB2
FILE: 02. Rigning Sjö (Mark E Remix).flac
  Size: 84350590 Hash: EB2D472A7700D097257530B1C342BA39 Accuracy: -m0
  Conclusion: ???
  Signature: 2915CA78AC73A293D9F26E0DFECF9CE2D1D34819
FILE: 01. Rigning Sjö (Original).flac
  Size: 53064115 Hash: 9F837EDE50AC11ED6E58250A96B50325 Accuracy: -m0
  Conclusion: ???
  Signature: 669B15A93BE42D92F30517B6A06B09AB5458C191

Vinyl condition: Mint
Turntable: Victor QL-7
Cartdrige: Victor Z1S
Phono: Pro-Ject Tube Box SE II
Soundcard: ESI Juli@
Recording software: Sound Forge Audio Studio 10.0
Recording format: 24 bit / 96 kHz
Output format: 24 bit / 96 kHz
Processing: Fade-in / fade-out, clicks removed individualy, normalisation using Sound Forge Audio Studio 10.0.
#77Год выпуска: 2014
Продолжительность: 01:07:32
Треклист:

01. Sleepygirl 1 (05:23)
02. Sleepygirl 2 (05:10)
03. Sleepygirl 3 (05:59)
04. Sleepygirl 4 (05:24)
05. Sleepygirl 5 (06:02)
06. Sleepygirl 6 (05:08)
07. Sleepygirl 7 (05:20)
08. Sleepygirl 8 (06:03)
09. Sleepygirl 9 (05:25)
10. Sleepygirl 10 (05:04)
11. Sleepygirl 11 (06:15)
12. Sleepygirl 12 (06:19)
Код: Выделить всё
Exact Audio Copy V1.0 beta 3 from 29. August 2011

EAC extraction logfile from 4. July 2014, 20:36

Yagya / Sleepygirls

Used drive  : PIONEER DVD-RW  DVR-220   Adapter: 4  ID: 0

Read mode               : Secure
Utilize accurate stream : Yes
Defeat audio cache      : Yes
Make use of C2 pointers : No

Read offset correction                      : 6
Overread into Lead-In and Lead-Out          : No
Fill up missing offset samples with silence : Yes
Delete leading and trailing silent blocks   : No
Null samples used in CRC calculations       : Yes
Used interface                              : Native Win32 interface for Win NT & 2000
Gap handling                                : Appended to previous track

Used output format              : User Defined Encoder
Selected bitrate                : 896 kBit/s
Quality                         : High
Add ID3 tag                     : No
Command line compressor         : C:\Program Files (x86)\Exact Audio Copy\Flac\flac.exe
Additional command line options : -8 -V -T "ARTIST=%artist%" -T "TITLE=%title%" -T "ALBUM=%albumtitle%" -T "DATE=%year%" -T "TRACKNUMBER=%tracknr%" -T "GENRE=%genre%" -T "PERFORMER=%albuminterpret%" -T "COMPOSER=%composer%" %haslyrics%--tag-from-file=LYRICS="%lyricsfile%"%haslyrics% -T "ALBUMARTIST=%albumartist%" -T "DISCNUMBER=%cdnumber%" -T "TOTALDISCS=%totalcds%" -T "TOTALTRACKS=%numtracks%" -T "COMMENT=%comment%" %source% -o %dest%

TOC of the extracted CD

     Track |   Start  |  Length  | Start sector | End sector
    ---------------------------------------------------------
        1  |  0:00.00 |  5:23.14 |         0    |    24238
        2  |  5:23.14 |  5:09.71 |     24239    |    47484
        3  | 10:33.10 |  5:58.51 |     47485    |    74385
        4  | 16:31.61 |  5:24.22 |     74386    |    98707
        5  | 21:56.08 |  6:01.38 |     98708    |   125820
        6  | 27:57.46 |  5:08.12 |    125821    |   148932
        7  | 33:05.58 |  5:19.46 |    148933    |   172903
        8  | 38:25.29 |  6:03.25 |    172904    |   200153
        9  | 44:28.54 |  5:25.37 |    200154    |   224565
       10  | 49:54.16 |  5:04.08 |    224566    |   247373
       11  | 54:58.24 |  6:14.66 |    247374    |   275489
       12  | 61:13.15 |  6:19.13 |    275490    |   303927

Track  1

     Filename L:\MUSIC\Yagya - Sleepygirls (2014) [CD-FLAC]\01. Yagya - Sleepygirl 1.wav

     Pre-gap length  0:00:02.00

     Peak level 96.0 %
     Extraction speed 4.5 X
     Track quality 100.0 %
     Test CRC FFBEA671
     Copy CRC FFBEA671
     Track not present in AccurateRip database
     Copy OK

Track  2

     Filename L:\MUSIC\Yagya - Sleepygirls (2014) [CD-FLAC]\02. Yagya - Sleepygirl 2.wav

     Peak level 96.0 %
     Extraction speed 5.1 X
     Track quality 100.0 %
     Test CRC DAB25558
     Copy CRC DAB25558
     Track not present in AccurateRip database
     Copy OK

Track  3

     Filename L:\MUSIC\Yagya - Sleepygirls (2014) [CD-FLAC]\03. Yagya - Sleepygirl 3.wav

     Peak level 96.0 %
     Extraction speed 5.7 X
     Track quality 100.0 %
     Test CRC 100BCFBA
     Copy CRC 100BCFBA
     Track not present in AccurateRip database
     Copy OK

Track  4

     Filename L:\MUSIC\Yagya - Sleepygirls (2014) [CD-FLAC]\04. Yagya - Sleepygirl 4.wav

     Peak level 93.3 %
     Extraction speed 6.2 X
     Track quality 100.0 %
     Test CRC E24BEF13
     Copy CRC E24BEF13
     Track not present in AccurateRip database
     Copy OK

Track  5

     Filename L:\MUSIC\Yagya - Sleepygirls (2014) [CD-FLAC]\05. Yagya - Sleepygirl 5.wav

     Peak level 93.3 %
     Extraction speed 5.8 X
     Track quality 99.9 %
     Test CRC A0EA8ED8
     Copy CRC A0EA8ED8
     Track not present in AccurateRip database
     Copy OK

Track  6

     Filename L:\MUSIC\Yagya - Sleepygirls (2014) [CD-FLAC]\06. Yagya - Sleepygirl 6.wav

     Peak level 96.0 %
     Extraction speed 7.1 X
     Track quality 100.0 %
     Test CRC 1E56BBB4
     Copy CRC 1E56BBB4
     Track not present in AccurateRip database
     Copy OK

Track  7

     Filename L:\MUSIC\Yagya - Sleepygirls (2014) [CD-FLAC]\07. Yagya - Sleepygirl 7.wav

     Peak level 96.0 %
     Extraction speed 7.4 X
     Track quality 100.0 %
     Test CRC F4396584
     Copy CRC F4396584
     Track not present in AccurateRip database
     Copy OK

Track  8

     Filename L:\MUSIC\Yagya - Sleepygirls (2014) [CD-FLAC]\08. Yagya - Sleepygirl 8.wav

     Peak level 96.0 %
     Extraction speed 8.0 X
     Track quality 100.0 %
     Test CRC 473399BD
     Copy CRC 473399BD
     Track not present in AccurateRip database
     Copy OK

Track  9

     Filename L:\MUSIC\Yagya - Sleepygirls (2014) [CD-FLAC]\09. Yagya - Sleepygirl 9.wav

     Peak level 93.4 %
     Extraction speed 8.3 X
     Track quality 100.0 %
     Test CRC 1A86A9EF
     Copy CRC 1A86A9EF
     Track not present in AccurateRip database
     Copy OK

Track 10

     Filename L:\MUSIC\Yagya - Sleepygirls (2014) [CD-FLAC]\10. Yagya - Sleepygirl 10.wav

     Peak level 94.6 %
     Extraction speed 7.0 X
     Track quality 99.9 %
     Test CRC 92DE7367
     Copy CRC 92DE7367
     Track not present in AccurateRip database
     Copy OK

Track 11

     Filename L:\MUSIC\Yagya - Sleepygirls (2014) [CD-FLAC]\11. Yagya - Sleepygirl 11.wav

     Peak level 93.5 %
     Extraction speed 9.0 X
     Track quality 100.0 %
     Test CRC 5AD58243
     Copy CRC 5AD58243
     Track not present in AccurateRip database
     Copy OK

Track 12

     Filename L:\MUSIC\Yagya - Sleepygirls (2014) [CD-FLAC]\12. Yagya - Sleepygirl 12.wav

     Peak level 92.8 %
     Extraction speed 9.4 X
     Track quality 100.0 %
     Test CRC 03558CF3
     Copy CRC 03558CF3
     Track not present in AccurateRip database
     Copy OK

None of the tracks are present in the AccurateRip database

No errors occurred

End of status report

---- CUETools DB Plugin V2.1.3

[CTDB TOCID: dgxo6edmCJjoLgeENVzGjcOpLEo-] found, Submit result: dgxo6edmCJjoLgeENVzGjcOpLEo- has been confirmed
[48513b1d] (2/2) Accurately ripped

==== Log checksum 3E6ED1B05A1822D4D3AD35BEEC16EC5B30142DC7D24AD82EF76070A17A4427A7 ====

 
Код: Выделить всё
REM GENRE "Dub Techno, Ambient"
REM DATE 2014
REM DISCID BC0FD40C
REM COMMENT "ExactAudioCopy v1.0b3"
CATALOG 8718754950275
PERFORMER "Yagya"
TITLE "Sleepygirls"
FILE "01. Yagya - Sleepygirl 1.wav" WAVE
  TRACK 01 AUDIO
    TITLE "Sleepygirl 1"
    PERFORMER "Yagya"
    ISRC NLM791400016
    INDEX 01 00:00:00
FILE "02. Yagya - Sleepygirl 2.wav" WAVE
  TRACK 02 AUDIO
    TITLE "Sleepygirl 2"
    PERFORMER "Yagya"
    ISRC NLM791400017
    INDEX 01 00:00:00
FILE "03. Yagya - Sleepygirl 3.wav" WAVE
  TRACK 03 AUDIO
    TITLE "Sleepygirl 3"
    PERFORMER "Yagya"
    ISRC NLM791400018
    INDEX 01 00:00:00
FILE "04. Yagya - Sleepygirl 4.wav" WAVE
  TRACK 04 AUDIO
    TITLE "Sleepygirl 4"
    PERFORMER "Yagya"
    ISRC NLM791400019
    INDEX 01 00:00:00
FILE "05. Yagya - Sleepygirl 5.wav" WAVE
  TRACK 05 AUDIO
    TITLE "Sleepygirl 5"
    PERFORMER "Yagya"
    ISRC NLM791400020
    INDEX 01 00:00:00
FILE "06. Yagya - Sleepygirl 6.wav" WAVE
  TRACK 06 AUDIO
    TITLE "Sleepygirl 6"
    PERFORMER "Yagya"
    ISRC NLM791400021
    INDEX 01 00:00:00
FILE "07. Yagya - Sleepygirl 7.wav" WAVE
  TRACK 07 AUDIO
    TITLE "Sleepygirl 7"
    PERFORMER "Yagya"
    ISRC NLM791400022
    INDEX 01 00:00:00
FILE "08. Yagya - Sleepygirl 8.wav" WAVE
  TRACK 08 AUDIO
    TITLE "Sleepygirl 8"
    PERFORMER "Yagya"
    ISRC NLM791400023
    INDEX 01 00:00:00
FILE "09. Yagya - Sleepygirl 9.wav" WAVE
  TRACK 09 AUDIO
    TITLE "Sleepygirl 9"
    PERFORMER "Yagya"
    ISRC NLM791400024
    INDEX 01 00:00:00
FILE "10. Yagya - Sleepygirl 10.wav" WAVE
  TRACK 10 AUDIO
    TITLE "Sleepygirl 10"
    PERFORMER "Yagya"
    ISRC NLM791400025
    INDEX 01 00:00:00
FILE "11. Yagya - Sleepygirl 11.wav" WAVE
  TRACK 11 AUDIO
    TITLE "Sleepygirl 11"
    PERFORMER "Yagya"
    ISRC NLM791400026
    INDEX 01 00:00:00
FILE "12. Yagya - Sleepygirl 12.wav" WAVE
  TRACK 12 AUDIO
    TITLE "Sleepygirl 12"
    PERFORMER "Yagya"
    ISRC NLM791400027
    INDEX 01 00:00:00

 
#77Год выпуска: 2014
Продолжительность: 00:57:15
Треклист:

01. DeepChord Redesigns 1 (07:30)
02. DeepChord Redesigns 2 (07:18)
03. DeepChord Redesigns 3 (06:58)
04. DeepChord Redesigns 4 (07:04)
05. DeepChord Redesigns 5 (06:49)
06. DeepChord Redesigns 6 (06:49)
07. DeepChord Redesigns 7 (07:19)
08. DeepChord Redesigns 8 (07:28)
Код: Выделить всё
-----------------------

DON'T MODIFY THIS FILE

-----------------------

PERFORMER: auCDtect Task Manager, ver. 1.5.1RC6 build 1.5.1.7
Copyright (c) 2008-2010 y-soft. All rights reserved
[url=http://y-soft.org]http://y-soft.org[/url]

ANALYZER: auCDtect: CD records authenticity detector, version 0.8.2
Copyright (c) 2004 Oleg Berngardt. All rights reserved.
Copyright (c) 2004 Alexander Djourik. All rights reserved.

FILE: 08. DeepChord Redesigns 8.flac
  Size: 56837626 Hash: A81DECD03EDEBD62B52CAACD14097B70 Accuracy: -m0
  Conclusion: CDDA 100%
  Signature: 9E7013F0C4F98AAD9DEAAB5C482E319153FA1D1F
FILE: 07. DeepChord Redesigns 7.flac
  Size: 52922757 Hash: 02C6B13FB61E76FE68EA70119EA9EBA3 Accuracy: -m0
  Conclusion: CDDA 100%
  Signature: FA6FF18C72EF49BC0846A756AD747CEEB31CBFFB
FILE: 06. DeepChord Redesigns 6.flac
  Size: 40968022 Hash: CBFD905AF2F424CBBCC52751844D8CB3 Accuracy: -m0
  Conclusion: CDDA 100%
  Signature: 46984FE6687CAEA9C1E79EA325D2FBCEAF45BA59
FILE: 05. DeepChord Redesigns 5.flac
  Size: 47775728 Hash: 7A0053835D518D1AF8F0696B26BC4C1A Accuracy: -m0
  Conclusion: CDDA 100%
  Signature: 1E54C09E8C3EF1222E4C1EB5677A138D43AE30F3
FILE: 04. DeepChord Redesigns 4.flac
  Size: 41732971 Hash: 93674A4177F9F00A49401361A5B8A75A Accuracy: -m0
  Conclusion: CDDA 100%
  Signature: 312774ABA6923CDB4BE350FE9DB28CAE585150A4
FILE: 03. DeepChord Redesigns 3.flac
  Size: 50691455 Hash: D3AAB77D2592BB548983A11002A41776 Accuracy: -m0
  Conclusion: CDDA 100%
  Signature: BE0BF8221541668AED754FF15EAEDAC7D813D0ED
FILE: 02. DeepChord Redesigns 2.flac
  Size: 50077499 Hash: 89C21305F01D32335230AAF59F5241A6 Accuracy: -m0
  Conclusion: CDDA 100%
  Signature: DB07DD6BB3DF18AEF2280337C72D633A67AAA084
FILE: 01. DeepChord Redesigns 1.flac
  Size: 50334350 Hash: 7C3356D40B5AEA4E72D65D3234A39F39 Accuracy: -m0
  Conclusion: CDDA 100%
  Signature: 51BA5FF02834A226A3CA6448D64ACC832D49C60E

Время раздачи: 12/7
 
Не забывайте говорить Спасибо. Не уходите с раздачи!   
Торрент: Зарегистрирован [30 авг 2016, 02:46] Скачать торрент
Скачать торрент
[ Размер 24.38 КБ / Просмотров 21 ]
Статус:
Проверен
 
.torrent скачан: 0 раз
Хэш: d90efdb2b5dae777b64ba78ed2c04fff4b46709c
Размер: 2.69 ГБ (2 889 552 195 байт)
Стать Автором раздачи
 
 
Раздал: 100 ГБ
Скачал: 0 байт
Ратио: Seed.
Сообщения: 108845
Зарегистрирован: 09 апр 2015, 22:31


  • Похожие торренты
    Ответы
    Просмотры
    Последнее сообщение

Вернуться в House, Techno, Electro, Minimal (транзит Lossless)

Ресурс не предоставляет электронные версии произведений, а занимается лишь коллекционированием и каталогизацией ссылок, присылаемых и публикуемых на форуме нашими читателями. Если вы являетесь правообладателем какого-либо представленного материала и не желаете чтобы ссылка на него находилась в нашем каталоге, свяжитесь с нами и мы незамедлительно удалим её. Файлы для обмена на трекере предоставлены пользователями сайта, и администрация не несёт ответственности за их содержание. Просьба не заливать файлы, защищенные авторскими правами, а также файлы нелегального содержания!
cron