Маскарад / Masquerade / Gwanghae, wangyidoen namja (2012) HDRip [H.264] Юрий Сербин [MP4|1024x436]

 
 Статистика раздачи 
Размер: 1.9 ГБ   |  Зарегистрирован: 29 авг 2016, 16:54   |   .torrent скачан: 0 раз
Сидеров: 1  [ 0 байт/сек ]     Личеров: 0  [ 0 байт/сек ]  
  

Маскарад / Masquerade / Gwanghae, wangyidoen namja (2012) HDRip [H.264] Юрий Сербин [MP4|1024x436]

Сообщение explosiveone » 29 авг 2016, 16:54

Маскарад / Masquerade / Gwanghae, wangyidoen namja (2012) HDRip Юрий Сербин

«The kingdom in the hand of a layman for 15 days»

Производство: Корея Южная, CJ Entertainment, Realies Pictures
Жанр: Драма, История

Режиссер: Чанг-мин Чо
Актеры: Ли Бён Хон, Рю Сын Рён, Хан Хё Чжу, Ким Ин Квон, Чан Гван, Шим Ын Кён, Ким Мён Гон, Ли Эль, Син Ун Соп, Ю Сун Ун

Описание:
Король Кван Хэ правил в течение 8 лет. Теперь же он подозревает, что кто-то из придворного окружения задумал его отравить. Стремясь защитить себя, король приказывает главному советнику найти ему двойника, который заменил бы короля на опасном ныне троне. Сыграть короля предстоит легкомысленному шуту Ха Суну, исполняющему непристойные спектакли перед дворянами. Начавшаяся как кратковременная прихоть эта идея вскоре сыграет важную роль в жизни короля и его двойника, и окажет значительное влияние на судьбу страны..


Возраст: этот продукт не был классифицирован
Рейтинг MPAA: этот продукт не был классифицирован

Продолжительность: 02:11:29
Качество видео: HDRip
Перевод: Одноголосый закадровый - Юрий Сербин
Вид субтитров: Вшитые отключаемые
Язык субтитров: Русский, Английский

Видео: AVC/H.264 (Main@L3.1), 1024x436 (2.35:1), 1800 Кбит/сек
Аудио #1: AAC, 2 канала, 128 Кбит/сек - русский (одноголосый закадровый)
Аудио #2: AAC, 2 канала, 128 Кбит/сек - корейский (оригинальный)
Код:
Код: Выделить всё
General
Complete name                            : C:\CREATE\264mod1\out\Masquerade.2012.576p.HDRip.AAC.x264.mp4
Format                                   : MPEG-4
Format profile                           : Base Media / Version 2
Codec ID                                 : mp42 (mp42/isom)
File size                                : 1.90 GiB
Duration                                 : 2h 11mn
Overall bit rate mode                    : Variable
Overall bit rate                         : 2 064 Kbps
Movie name                               : Masquerade
Performer                                : Chang-min Choo
Director                                 : Chang-min Choo
Actor                                    : Byung-Hun Lee / Seung-Ryong Ryu / Hyo-ju Han
Genre                                    : Drama
ContentType                              : Short Film
Description                              : During the confusing and conspiratorial Joseon Dynasty King Gwanghae orders his councilor, HEO Kyun
Recorded date                            : 2012-09-13
Encoded date                             : UTC 2016-08-28 05:15:08
Tagged date                              : UTC 2016-08-28 05:23:36
Copyright                                : © 2012 CJ Entertainment
Cover                                    : Yes
Rating                                   : None
LongDescription                          : During the confusing and conspiratorial Joseon Dynasty King Gwanghae orders his councilor, HEO Kyun, to find him a double in order to avoid the constant threat of assassination. HEO Kyun finds Ha-sun, a jester who looks remarkably like the king. Just as feared, Gwanghae is poisoned. HEO Kyun proposes Ha-sun to fill the role as the king until Gwanghae recovers fully and grooms Ha-sun to look every bit like the king. While assuming the role of the king at his first official appearance, Ha-sun begins to ponder the intricacies of the problems debated in his court. Being fundamentally more humanitarian than Gwanghae, Ha-sun’s affection and appreciation of even the most minor servants slowly change morale in the castle for the better. However, his chief opposition, PARK, notices the sudden shift in the king’s behavior and starts to ask questions.
ContentRating                            : uk-movie|Unrated|???|

Video
ID                                       : 1
Format                                   : AVC
Format/Info                              : Advanced Video Codec
Format profile                           :
Format settings, CABAC                   : No
Format settings, ReFrames                : 3 frames
Codec ID                                 : avc1
Codec ID/Info                            : Advanced Video Coding
Duration                                 : 2h 11mn
Bit rate                                 : 1 800 Kbps
Width                                    : 1 024 pixels
Height                                   : 436 pixels
Display aspect ratio                     : 2.35:1
Frame rate mode                          : Variable
Frame rate                               : 23.976 (24000/1001) fps
Minimum frame rate                       : 23.810 fps
Maximum frame rate                       : 24.390 fps
Color space                              : YUV
Chroma subsampling                       : 4:2:0
Bit depth                                : 8 bits
Scan type                                : Progressive
Bits/(Pixel*Frame)                       : 0.168
Stream size                              : 1.65 GiB (87%)
Writing library                          : x264 core 148 r2705+54 9f484c1 t_mod_Custom [8-bit@all X86]
Encoding settings                        : cabac=0 / ref=3 / deblock=1:-1:-1 / analyse=0x1:0x111 / me=umh / subme=8 / psy=1 / fade_compensate=0.00 / psy_rd=1.00:0.00 / mixed_ref=1 / me_range=32 / chroma_me=1 / trellis=2 / 8x8dct=0 / cqm=0 / deadzone=21,11 / fast_pskip=0 / chroma_qp_offset=-2 / threads=12 / lookahead_threads=2 / sliced_threads=0 / nr=0 / decimate=0 / interlaced=0 / bluray_compat=0 / constrained_intra=0 / fgo=0 / bframes=3 / b_pyramid=1 / b_adapt=2 / b_bias=0 / direct=3 / weightb=1 / open_gop=0 / weightp=2 / keyint=240 / keyint_min=23 / scenecut=40 / intra_refresh=0 / rc_lookahead=50 / rc=2pass / mbtree=1 / bitrate=1800 / ratetol=1.0 / qcomp=0.60 / qpmin=0:0:0 / qpmax=69:69:69 / qpstep=4 / cplxblur=20.0 / qblur=0.5 / vbv_maxrate=14000 / vbv_bufsize=14000 / nal_hrd=none / filler=0 / ip_ratio=1.30 / aq=3:0.80 / aq-sensitivity=10.00 / aq-factor=1.00:1.00:1.00 / aq2=1:0.90 / aq2-sensitivity=15.00 / aq2-factor=1.00:1.00:1.00 / aq3=3:[0.50:0.50]:[0.50:0.50]:[0.50:0.50]:[0.50:0.50] / aq3-sensitivity=10.00 / aq3-factor=[1.00:1.00]:[1.00:1.00]:[1.00:1.00] / aq3-boundary=192:64:24
Encoded date                             : UTC 2016-08-28 05:15:08
Tagged date                              : UTC 2016-08-28 05:20:49
Color range                              : Limited
Matrix coefficients                      : BT.709
Menus                                    : 6

Audio #1
ID                                       : 2
Format                                   : AAC
Format/Info                              : Advanced Audio Codec
Format profile                           : LC
Codec ID                                 : 40
Duration                                 : 2h 11mn
Source duration                          : 2h 11mn
Bit rate mode                            : Variable
Bit rate                                 : 128 Kbps
Maximum bit rate                         : 132 Kbps
Channel(s)                               : 2 channels
Channel positions                        : Front: L R
Sampling rate                            : 48.0 KHz
Frame rate                               : 46.875 fps (1024 spf)
Compression mode                         : Lossy
Stream size                              : 120 MiB (6%)
Source stream size                       : 120 MiB (6%)
Language                                 : Russian
Default                                  : Yes
Alternate group                          : 1
Encoded date                             : UTC 2016-08-28 05:15:08
Tagged date                              : UTC 2016-08-28 05:20:49

Audio #2
ID                                       : 3
Format                                   : AAC
Format/Info                              : Advanced Audio Codec
Format profile                           : LC
Codec ID                                 : 40
Duration                                 : 2h 11mn
Source duration                          : 2h 11mn
Bit rate mode                            : Variable
Bit rate                                 : 128 Kbps
Maximum bit rate                         : 132 Kbps
Channel(s)                               : 2 channels
Channel positions                        : Front: L R
Sampling rate                            : 48.0 KHz
Frame rate                               : 46.875 fps (1024 spf)
Compression mode                         : Lossy
Stream size                              : 120 MiB (6%)
Source stream size                       : 120 MiB (6%)
Language                                 : Korean
Default                                  : No
Alternate group                          : 1
Encoded date                             : UTC 2016-08-28 05:15:08
Tagged date                              : UTC 2016-08-28 05:20:49

Text #1
ID                                       : 4
Format                                   : Timed Text
Muxing mode                              : sbtl
Codec ID                                 : tx3g
Duration                                 : 2h 8mn
Bit rate mode                            : Variable
Bit rate                                 : 82 bps
Stream size                              : 76.9 KiB (0%)
Language                                 : Russian
Default                                  : Yes
Forced                                   : No
Alternate group                          : 2
Encoded date                             : UTC 2016-08-28 05:15:08
Tagged date                              : UTC 2016-08-28 05:20:50

Text #2
ID                                       : 5
Format                                   : Timed Text
Muxing mode                              : sbtl
Codec ID                                 : tx3g
Duration                                 : 2h 7mn
Bit rate mode                            : Variable
Bit rate                                 : 46 bps
Stream size                              : 43.5 KiB (0%)
Language                                 : English
Default                                  : No
Forced                                   : No
Alternate group                          : 2
Encoded date                             : UTC 2016-08-28 05:15:08
Tagged date                              : UTC 2016-08-28 05:20:50

Menu
ID                                       : 6
Codec ID                                 : text
Duration                                 : 2h 11mn
Language                                 : English
Encoded date                             : UTC 2016-08-28 05:20:50
Tagged date                              : UTC 2016-08-28 05:20:50
Bit rate mode                            : CBR
Menu For                                 : 1
00:00:00.000                             : 00:00:00.000
00:03:10.857                             : 00:03:10.857
00:11:46.205                             : 00:11:46.205
00:17:58.494                             : 00:17:58.494
00:24:55.786                             : 00:24:55.786
00:28:46.975                             : 00:28:46.975
00:36:38.613                             : 00:36:38.613
00:45:22.178                             : 00:45:22.178
00:50:21.894                             : 00:50:21.894
00:54:49.077                             : 00:54:49.077
01:00:29.959                             : 01:00:29.960
01:06:56.638                             : 01:06:56.638
01:11:19.025                             : 01:11:19.025
01:18:07.558                             : 01:18:07.558
01:25:45.390                             : 01:25:45.390
01:31:13.843                             : 01:31:13.843
01:41:00.805                             : 01:41:00.805
01:44:17.042                             : 01:44:17.042
01:49:15.257                             : 01:49:15.257
01:52:49.179                             : 01:52:49.179
02:00:09.327                             : 02:00:09.327
02:05:12.255                             : 02:05:12.255

Скриншоты:


Время раздачи: 24/7 (круглосуточно) (до появления первых 3-5 скачавших)
 
Не забывайте говорить Спасибо. Не уходите с раздачи!   
Торрент: Зарегистрирован [29 авг 2016, 16:54] Для скачивания .torrent
необходима регистрация
Или скачать с помощью
MediaGet
Статус:
Проверен
 
.torrent скачан: 0 раз
Хэш: 76bf65bdadb8db1fc70d67dffaa0d0cde37afa5b
Размер: 1.9 ГБ (2 035 210 119 байт)
Стать Автором раздачи
 
 
Раздал: 100 ГБ
Скачал: 0 байт
Ратио: Seed.
Сообщения: 94048
Зарегистрирован: 09 апр 2015, 22:31


  • Похожие торренты
    Ответы
    Просмотры
    Последнее сообщение

Вернуться в Видео для мобильных устройств

Ресурс не предоставляет электронные версии произведений, а занимается лишь коллекционированием и каталогизацией ссылок, присылаемых и публикуемых на форуме нашими читателями. Если вы являетесь правообладателем какого-либо представленного материала и не желаете чтобы ссылка на него находилась в нашем каталоге, свяжитесь с нами и мы незамедлительно удалим её. Файлы для обмена на трекере предоставлены пользователями сайта, и администрация не несёт ответственности за их содержание. Просьба не заливать файлы, защищенные авторскими правами, а также файлы нелегального содержания!
cron