Нэнси Дрю / Nancy Drew (2007) HDTVRip [H.264] [MP4|720x424@1024x424]

 
 Статистика раздачи 
Размер: 1.31 ГБ   |  Зарегистрирован: 27 авг 2016, 18:32   |   .torrent скачан: 0 раз
Сидеров: 1  [ 0 байт/сек ]     Личеров: 0  [ 0 байт/сек ]  
  

Нэнси Дрю / Nancy Drew (2007) HDTVRip [H.264] [MP4|720x424@1024x424]

Сообщение explosiveone » 27 авг 2016, 18:32

Нэнси Дрю / Nancy Drew (2007) HDTVRip

«Маленькая девочка. Большие приключения»

Производство: США, Warner Bros. Pictures
Жанр: Триллер, Мелодрама, Комедия, Семейный, Детектив

Режиссер: Эндрю Флеминг
Актеры: Эмма Робертс, Крэйг Геллис, Рич Купер, Макс Тириот, Эми Брукнер, Кей Панабэйкер, Клифф Бемис, Тейт Донован, Дэвид Доути, Лора Хэрринг, Брюс Уиллис

Описание:
Нэнси Дрю, юная любительница детективов, вместе со своим отцом отправляется в Лос-Анджелес, где оказывается втянутой в цепь таинственных событий нераскрытого преступления, связанного со смертью красавицы-кинозвезды…


Возраст: 12+ (зрителям, достигшим 12 лет)
Рейтинг MPAA: PG (рекомендуется присутствие родителей)

Продолжительность: 01:35:19
Качество видео: HDTVRip
Перевод: Многоголосый закадровый
Вид субтитров: Вшитые отключаемые
Язык субтитров: Английский

Видео: AVC/H.264 (Main@L3.1), 720x424@1024x424 (2.40:1), 1700 Кбит/сек
Аудио #1: AAC, 2 канала, 128 Кбит/сек - русский (многоголосый закадровый)
Аудио #2: AAC, 2 канала, 128 Кбит/сек - английский (оригинальный)
Код:
Код: Выделить всё
General
Complete name                            : C:\CREATE\Nancy.Drew.2007.HDTVRip.576p.AAC.NNMclub.mp4
Format                                   : MPEG-4
Format profile                           : Base Media
Codec ID                                 : isom (isom/avc1)
File size                                : 1.31 GiB
Duration                                 : 1h 35mn
Overall bit rate mode                    : Variable
Overall bit rate                         : 1 961 Kbps
Movie name                               : Нэнси Дрю
Performer                                : Andrew Fleming
Director                                 : Andrew Fleming / Susan Malerstein
Actor                                    : Emma Roberts (Nancy Drew) / Josh Flitter (Corky Veinshtein) / Max Thieriot (Ned Nickerson) / Rachael Leigh Cook (Jane Brighton) / Tate Donovan (Carson Drew) / Marshall Bell (John Leshing) / Daniella Monet (Inga Veinshtein) / Kelly Vitz (Trish) / Barry Bostwick (Dashiel Biedermeyer) / Craig Gellis (Thug) / Rich Cooper (Charlie) / Amy Bruckner (Bess) / Kay Panabaker (Georgie) / Cliff Bemis (Chief McGinnis) / David Doty (Father Murray) / Laura Harring (Dehlia Draycott) / Pat Carroll (Landlady) / Monica Parker (Hannah) / Caroline Aaron (Barbara Barbara) / Phil Abrams (Principal Fineman) / Joanne Baron (Costume Lady) / Ryan Raddatz (Assistant Director) / Adam Goldberg (Arrogant Director Andy) / Emmy Laybourne (File Lady) / Elyssa Davalos (Twin Palms Manager) / Kaitlyn Van Item (Allie Brighton) / Robert Merrill ('New Century' Actor)
Screenplay by                            : Andrew Fleming / Tiffany Paulsen / Mildred Wirt Benson / Tiffany Paulsen
Producer                                 : Jerry Weintraub / Pam Dixon / Robb Earnest / Cherylanne Martin / Cherylanne Martin / Susan Ekins / Mark Vahradian / Ben Waisbren / Julie M. Anderson
Genre                                    : Kids & Family
ContentType                              : Short Film
Description                              :  Нэнси Дрю, юная любительница детективов, вместе со своим отцом отправляется в Лос-Анджелес, где оказывается втянутой в цепь таинственных событий нераскрытого преступления, связанного со смертью красавицы-кинозвезды…
Recorded date                            : UTC 2007-06-15 07:00:00
Encoded date                             : UTC 2016-08-08 20:10:10
Tagged date                              : UTC 2016-08-08 20:34:01
Cover                                    : Yes
Rating                                   : None
Title/Sort                               : Nancy Drew
LongDescription                          : With her magnifying glass and fingerprint powder in hand, Nancy Drew (Emma Roberts) leaves River Heights for La-La-Land. She’s out to solve one of the greatest mysteries ever: the death of movie star Dehlia Draycott. But the bigger mystery is how our perky, plaid-clad sleuth will fit in with the text-messaging teen queens of mean she meets at Hollywood High. Join Nancy as she finds danger, mystery, adventure, romance, the coolest fashion and the hottest L.A. scenes. Because wherever Nancy goes, excitement still follows!
ContentRating                            : mpaa|PG|200|

Video
ID                                       : 1
Format                                   : AVC
Format/Info                              : Advanced Video Codec
Format profile                           :
Format settings, CABAC                   : No
Format settings, ReFrames                : 4 frames
Codec ID                                 : avc1
Codec ID/Info                            : Advanced Video Coding
Duration                                 : 1h 35mn
Bit rate                                 : 1 700 Kbps
Maximum bit rate                         : 10.2 Mbps
Width                                    : 720 pixels
Height                                   : 424 pixels
Display aspect ratio                     : 2.40:1
Frame rate mode                          : Constant
Frame rate                               : 25.000 fps
Color space                              : YUV
Chroma subsampling                       : 4:2:0
Bit depth                                : 8 bits
Scan type                                : Progressive
Bits/(Pixel*Frame)                       : 0.223
Stream size                              : 1.13 GiB (87%)
Writing library                          : x264 core 148 r2705+54 9f484c1 t_mod_Custom [8-bit@all X86_64]
Encoding settings                        : cabac=0 / ref=4 / deblock=1:-1:-1 / analyse=0x1:0x111 / me=umh / subme=7 / psy=1 / fade_compensate=0.00 / psy_rd=1.00:0.15 / mixed_ref=1 / me_range=32 / chroma_me=1 / trellis=2 / 8x8dct=0 / cqm=0 / deadzone=21,11 / fast_pskip=0 / chroma_qp_offset=-3 / threads=13 / lookahead_threads=2 / sliced_threads=0 / nr=0 / decimate=0 / interlaced=0 / bluray_compat=0 / constrained_intra=0 / fgo=0 / bframes=3 / b_pyramid=2 / b_adapt=2 / b_bias=0 / direct=3 / weightb=1 / open_gop=0 / weightp=2 / keyint=250 / keyint_min=25 / scenecut=40 / intra_refresh=0 / rc_lookahead=40 / rc=2pass / mbtree=1 / bitrate=1700 / ratetol=1.0 / qcomp=0.60 / qpmin=0:0:0 / qpmax=69:69:69 / qpstep=4 / cplxblur=20.0 / qblur=0.5 / vbv_maxrate=14000 / vbv_bufsize=14000 / nal_hrd=none / filler=0 / ip_ratio=1.40 / aq=3:0.90 / aq-sensitivity=10.00 / aq-factor=1.00:1.00:1.00 / aq2=0 / aq3=1:[0.50:0.50]:[0.50:0.50]:[0.50:0.50]:[0.50:0.50] / aq3-sensitivity=10.00 / aq3-factor=[1.00:1.00]:[1.00:1.00]:[1.00:1.00] / aq3-boundary=192:64:24
Language                                 : English
Encoded date                             : UTC 2016-08-08 20:10:10
Tagged date                              : UTC 2016-08-08 20:10:25
Color range                              : Limited
Matrix coefficients                      : BT.709

Audio #1
ID                                       : 2
Format                                   : AAC
Format/Info                              : Advanced Audio Codec
Format profile                           : LC
Codec ID                                 : 40
Duration                                 : 1h 35mn
Bit rate mode                            : Variable
Bit rate                                 : 128 Kbps
Maximum bit rate                         : 131 Kbps
Channel(s)                               : 2 channels
Channel positions                        : Front: L R
Sampling rate                            : 48.0 KHz
Frame rate                               : 46.875 fps (1024 spf)
Compression mode                         : Lossy
Stream size                              : 87.3 MiB (7%)
Language                                 : Russian
Default                                  : Yes
Alternate group                          : 1
Encoded date                             : UTC 2016-08-08 20:10:19
Tagged date                              : UTC 2016-08-08 20:10:25

Audio #2
ID                                       : 3
Format                                   : AAC
Format/Info                              : Advanced Audio Codec
Format profile                           : LC
Codec ID                                 : 40
Duration                                 : 1h 35mn
Bit rate mode                            : Variable
Bit rate                                 : 128 Kbps
Maximum bit rate                         : 131 Kbps
Channel(s)                               : 2 channels
Channel positions                        : Front: L R
Sampling rate                            : 48.0 KHz
Frame rate                               : 46.875 fps (1024 spf)
Compression mode                         : Lossy
Stream size                              : 87.3 MiB (7%)
Language                                 : English
Default                                  : No
Alternate group                          : 1
Encoded date                             : UTC 2016-08-08 20:10:22
Tagged date                              : UTC 2016-08-08 20:10:25

Text
ID                                       : 4
Format                                   : Timed Text
Muxing mode                              : sbtl
Codec ID                                 : tx3g
Duration                                 : 1h 35mn
Bit rate mode                            : Variable
Bit rate                                 : 86 bps
Stream size                              : 60.1 KiB (0%)
Language                                 : English
Default                                  : Yes
Forced                                   : No
Alternate group                          : 2
Encoded date                             : UTC 2016-08-08 20:10:25
Tagged date                              : UTC 2016-08-08 20:10:25

Скриншоты:


Время раздачи: 24/7 (круглосуточно) (до появления первых 3-5 скачавших)
 
Не забывайте говорить Спасибо. Не уходите с раздачи!   
Торрент: Зарегистрирован [27 авг 2016, 18:32] Для скачивания .torrent
необходима регистрация
Или скачать с помощью
MediaGet
Статус:
Проверен
 
.torrent скачан: 0 раз
Хэш: 61b5452f5cfa1bab7ac392881eeca0953cc7801e
Размер: 1.31 ГБ (1 401 671 361 байт)
Стать Автором раздачи
 
 
Раздал: 100 ГБ
Скачал: 0 байт
Ратио: Seed.
Сообщения: 94032
Зарегистрирован: 09 апр 2015, 22:31


  • Похожие торренты
    Ответы
    Просмотры
    Последнее сообщение

Вернуться в Видео для мобильных устройств

Ресурс не предоставляет электронные версии произведений, а занимается лишь коллекционированием и каталогизацией ссылок, присылаемых и публикуемых на форуме нашими читателями. Если вы являетесь правообладателем какого-либо представленного материала и не желаете чтобы ссылка на него находилась в нашем каталоге, свяжитесь с нами и мы незамедлительно удалим её. Файлы для обмена на трекере предоставлены пользователями сайта, и администрация не несёт ответственности за их содержание. Просьба не заливать файлы, защищенные авторскими правами, а также файлы нелегального содержания!
cron