Королева Марго / La reine Margot / Queen Margo (1994) DVDRip [H.264] (Full Version) DVDXpert, Ю.Сербин [MP4|720x560@1024x560]

 
 Статистика раздачи 
Размер: 2.62 ГБ   |  Зарегистрирован: 26 авг 2016, 10:22   |   .torrent скачан: 1 раз
Сидеров: 1  [ 0 байт/сек ]     Личеров: 0  [ 0 байт/сек ]  
  

Королева Марго / La reine Margot / Queen Margo (1994) DVDRip [H.264] (Full Version) DVDXpert, Ю.Сербин [MP4|720x560@1024x560]

Сообщение explosiveone » 26 авг 2016, 10:22

Королева Марго / La reine Margot / Queen Margo (1994) DVDRip (Full Version) DVDXpert, Ю.Сербин


Производство: Франция, Италия, Германия, Canal+ [fr], D.A. Films, Miramax Films
Жанр: Драма, Мелодрама, Биография, История

Режиссер: Патрис Шеро
Актеры: Изабель Аджани, Даниель Отой, Жан-Юг Англад, Венсан Перес, Вирна Лизи, Доминик Блан, Паскаль Греггори, Клаудио Амендола, Мигель Бозе, Азия Ардженто, Томас Кретчманн, Жан-Клод Бриали, Жан-Филипп Экоффе, Йохан Лейсен, Лоре Марсак, Алексис Нитцер, Эммануель Салинджер, Барбе Шрёдер, Жан-Марк Стель, Жюльен Рассам, Бруно Тодескини, Толстый, Бернар Верли, Даниель Бретон, Валерия Бруни Тедески, Дёрте Лиссевски, Марк Ситти

Описание:
Август 1572 года. Францию раздирает религиозная война. Чтобы восстановить мир в стране, прекрасная и гордая принцесса Марго, сестра католического короля Карла IX, должна выйти замуж за протестанта Генриха Наваррского. А после свадьбы произошла кровавая резня Варфоломеевской ночи, организованная жестокой и коварной Екатериной Медичи. Погибли тысячи протестантов, а один из них, тяжело раненный дворянин по имени Ла Моль, в отчаянной попытке спасти свою жизнь постучался в дверь Марго ...


Возраст: 16+ (зрителям, достигшим 16 лет)
Рейтинг MPAA: R (лицам до 17 лет обязательно присутствие взрослого)

Продолжительность: 02:43:34
Качество видео: DVDRip
Перевод: Многоголосый закадровый - DVDXpert, одноголосый закадровый - Юрий Сербин
Вид субтитров: Вшитые отключаемые
Язык субтитров: Русский

Видео: AVC/H.264 (Main@L3.0), 720x560@1024x560 (1.85:1), 1900 Кбит/сек
Аудио #1: AAC, 2 канала, 128 Кбит/сек - русский (многоголосый закадровый)
Аудио #2: AAC, 2 канала, 128 Кбит/сек - русский (одноголосый закадровый)
Аудио #3: AAC, 2 канала, 128 Кбит/сек - французский (оригинальный)
Код:
Код: Выделить всё
General
Complete name                            : C:\CREATE\264mod1\out\1\La.reine.Margot (Full Version).1994.576p.DVDRip.mp4
Format                                   : MPEG-4
Format profile                           : Base Media / Version 2
Codec ID                                 : mp42 (mp42/isom)
File size                                : 2.62 GiB
Duration                                 : 2h 43mn
Overall bit rate mode                    : Variable
Overall bit rate                         : 2 292 Kbps
Movie name                               : La reine Margot
Performer                                : Patrice Chéreau
Director                                 : Patrice Chéreau
Genre                                    : Drame
ContentType                              : Short Film
Description                              : 1572. La guerre de religions entre catholiques et protestants fait rage. Afin de réconcilier les
Recorded date                            : 1994-04-29
Encoded date                             : UTC 2016-08-25 20:46:26
Tagged date                              : UTC 2016-08-26 05:50:27
Cover                                    : Yes
Rating                                   : None
LongDescription                          : 1572. La guerre de religions entre catholiques et protestants fait rage. Afin de réconcilier les Français, Catherine de Médicis décide de marier sa fille, la catholique Marguerite de Valois, la « Reine Margot », avec le protestant Henri de Navarre, le futur roi Henri IV. Au cours de la nuit de la Saint-Barthélemy, alors que le sang coule à flot dans les rues de Paris, la « Reine Margot » sauve du massacre le seigneur de la Môle. Entre Margot la catholique et le protestant la Môle naît une passion qui fera basculer leurs destins.
ContentRating                            : fr-movie|-10|100|

Video
ID                                       : 1
Format                                   : AVC
Format/Info                              : Advanced Video Codec
Format profile                           : Main@L3
Format settings, CABAC                   : No
Format settings, ReFrames                : 4 frames
Codec ID                                 : avc1
Codec ID/Info                            : Advanced Video Coding
Duration                                 : 2h 43mn
Bit rate                                 : 1 900 Kbps
Width                                    : 720 pixels
Height                                   : 560 pixels
Display aspect ratio                     : 1.85:1
Original display aspect ratio            : 1.85:1
Frame rate mode                          : Constant
Frame rate                               : 25.000 fps
Color space                              : YUV
Chroma subsampling                       : 4:2:0
Bit depth                                : 8 bits
Scan type                                : Progressive
Bits/(Pixel*Frame)                       : 0.188
Stream size                              : 2.17 GiB (83%)
Writing library                          : x264 core 148 r2705+54 9f484c1 t_mod_Custom [8-bit@all X86_64]
Encoding settings                        : cabac=0 / ref=2 / deblock=1:-2:-2 / analyse=0x1:0x111 / me=umh / subme=8 / psy=1 / fade_compensate=0.00 / psy_rd=1.00:0.15 / mixed_ref=1 / me_range=32 / chroma_me=1 / trellis=2 / 8x8dct=0 / cqm=0 / deadzone=21,11 / fast_pskip=1 / chroma_qp_offset=-3 / threads=12 / lookahead_threads=2 / sliced_threads=0 / nr=0 / decimate=0 / interlaced=0 / bluray_compat=0 / constrained_intra=0 / fgo=0 / bframes=3 / b_pyramid=2 / b_adapt=2 / b_bias=0 / direct=3 / weightb=1 / open_gop=0 / weightp=2 / keyint=250 / keyint_min=25 / scenecut=40 / intra_refresh=0 / rc_lookahead=40 / rc=2pass / mbtree=1 / bitrate=1900 / ratetol=1.0 / qcomp=0.60 / qpmin=0:0:0 / qpmax=69:69:69 / qpstep=4 / cplxblur=20.0 / qblur=0.5 / vbv_maxrate=10000 / vbv_bufsize=10000 / nal_hrd=none / filler=0 / ip_ratio=1.40 / aq=3:0.80 / aq-sensitivity=10.00 / aq-factor=1.00:1.00:1.00 / aq2=0 / aq3=3:[0.50:0.50]:[0.50:0.50]:[0.50:0.50]:[0.50:0.50] / aq3-sensitivity=10.00 / aq3-factor=[1.00:1.00]:[1.00:1.00]:[1.00:1.00] / aq3-boundary=192:64:24
Encoded date                             : UTC 2016-08-25 20:46:26
Tagged date                              : UTC 2016-08-25 20:57:31
Color range                              : Limited
Color primaries                          : BT.601 PAL
Transfer characteristics                 : BT.470 System B, BT.470 System G
Matrix coefficients                      : BT.709
Menus                                    : 8

Audio #1
ID                                       : 4
Format                                   : AAC
Format/Info                              : Advanced Audio Codec
Format profile                           : LC
Codec ID                                 : 40
Duration                                 : 2h 43mn
Source duration                          : 2h 43mn
Bit rate mode                            : Variable
Bit rate                                 : 128 Kbps
Maximum bit rate                         : 132 Kbps
Channel(s)                               : 2 channels
Channel positions                        : Front: L R
Sampling rate                            : 48.0 KHz
Frame rate                               : 46.875 fps (1024 spf)
Compression mode                         : Lossy
Stream size                              : 150 MiB (6%)
Source stream size                       : 150 MiB (6%)
Language                                 : Russian
Default                                  : Yes
Alternate group                          : 1
Encoded date                             : UTC 2016-08-25 20:46:26
Tagged date                              : UTC 2016-08-25 20:57:31

Audio #2
ID                                       : 5
Format                                   : AAC
Format/Info                              : Advanced Audio Codec
Format profile                           : LC
Codec ID                                 : 40
Duration                                 : 2h 43mn
Source duration                          : 2h 43mn
Bit rate mode                            : Variable
Bit rate                                 : 128 Kbps
Maximum bit rate                         : 131 Kbps
Channel(s)                               : 2 channels
Channel positions                        : Front: L R
Sampling rate                            : 48.0 KHz
Frame rate                               : 46.875 fps (1024 spf)
Compression mode                         : Lossy
Stream size                              : 150 MiB (6%)
Source stream size                       : 150 MiB (6%)
Language                                 : Russian
Default                                  : No
Alternate group                          : 1
Encoded date                             : UTC 2016-08-25 20:46:26
Tagged date                              : UTC 2016-08-25 20:57:31

Audio #3
ID                                       : 6
Format                                   : AAC
Format/Info                              : Advanced Audio Codec
Format profile                           : LC
Codec ID                                 : 40
Duration                                 : 2h 43mn
Source duration                          : 2h 43mn
Bit rate mode                            : Variable
Bit rate                                 : 128 Kbps
Maximum bit rate                         : 132 Kbps
Channel(s)                               : 2 channels
Channel positions                        : Front: L R
Sampling rate                            : 48.0 KHz
Frame rate                               : 46.875 fps (1024 spf)
Compression mode                         : Lossy
Stream size                              : 150 MiB (6%)
Source stream size                       : 150 MiB (6%)
Language                                 : French
Default                                  : No
Alternate group                          : 1
Encoded date                             : UTC 2016-08-25 20:46:26
Tagged date                              : UTC 2016-08-25 20:57:31

Text
ID                                       : 7
Format                                   : Timed Text
Muxing mode                              : sbtl
Codec ID                                 : tx3g
Duration                                 : 2h 38mn
Bit rate mode                            : Variable
Bit rate                                 : 77 bps
Stream size                              : 89.8 KiB (0%)
Language                                 : Russian
Default                                  : Yes
Forced                                   : No
Alternate group                          : 2
Encoded date                             : UTC 2016-08-25 20:46:26
Tagged date                              : UTC 2016-08-25 20:57:31

Menu
ID                                       : 8
Codec ID                                 : text
Duration                                 : 2h 43mn
Language                                 : English
Encoded date                             : UTC 2016-08-25 20:57:31
Tagged date                              : UTC 2016-08-25 20:57:31
Bit rate mode                            : CBR
Menu For                                 : 1
00:00:00.000                             : Chapter 01
00:05:34.120                             : Chapter 02
00:17:04.400                             : Chapter 03
00:31:17.520                             : Chapter 04
00:40:49.560                             : Chapter 05
00:51:41.120                             : Chapter 06
01:01:52.080                             : Chapter 07
01:12:41.800                             : Chapter 08
01:23:57.360                             : Chapter 09
01:38:02.360                             : Chapter 10
01:48:00.960                             : Chapter 11
01:59:26.920                             : Chapter 12
02:12:55.080                             : Chapter 13
02:22:59.840                             : Chapter 14
02:30:01.400                             : Chapter 15
02:39:19.400                             : Chapter 16
02:43:34.360                             : Chapter 17

Скриншоты:


Время раздачи: 24/7 (круглосуточно) (до появления первых 3-5 скачавших)
 
Не забывайте говорить Спасибо. Не уходите с раздачи!   
Торрент: Зарегистрирован [26 авг 2016, 10:22] Для скачивания .torrent
необходима регистрация
Или скачать с помощью
MediaGet
Статус:
Проверен
 
.torrent скачан: 1 раз
Хэш: 892f75e819fbdc739d685350af851ad1221d028e
Размер: 2.62 ГБ (2 812 459 405 байт)
Стать Автором раздачи
 
 
Раздал: 100 ГБ
Скачал: 0 байт
Ратио: Seed.
Сообщения: 94053
Зарегистрирован: 09 апр 2015, 22:31


  • Похожие торренты
    Ответы
    Просмотры
    Последнее сообщение

Вернуться в Видео для мобильных устройств

Ресурс не предоставляет электронные версии произведений, а занимается лишь коллекционированием и каталогизацией ссылок, присылаемых и публикуемых на форуме нашими читателями. Если вы являетесь правообладателем какого-либо представленного материала и не желаете чтобы ссылка на него находилась в нашем каталоге, свяжитесь с нами и мы незамедлительно удалим её. Файлы для обмена на трекере предоставлены пользователями сайта, и администрация не несёт ответственности за их содержание. Просьба не заливать файлы, защищенные авторскими правами, а также файлы нелегального содержания!
cron